<svg xmlns="http://www.w3.org/2000/svg"><defs><font id="Ionicons" horiz-adv-x="416"><font-face font-family="Ionicons" font-weight="400" units-per-em="512" panose-1="2 0 5 3 0 0 0 0 0 0" ascent="448" descent="-64" bbox="-0.75 -64 512.487 448" underline-thickness="25.6" underline-position="-51.2" unicode-range="U+F100-F4CD"/><glyph glyph-name="ion-ios-color-fill" unicode="" horiz-adv-x="384" d="M167 330l172-170c4-4 1-11-5-11-10 0-23-1-29-7-8-8-88-86-126-123-11-10-28-10-39 0L9 145c-11 11-12 29-1 40l85 84-50 49c-19 19-19 49 0 68 9 9 22 14 34 14s25-5 34-14l56-56zm-103 8l48-49 29 28-50 49c-4 4-9 6-14 6-6 0-11-3-15-8-6-8-5-19 2-26zm275-230c11-12 45-53 45-76 0-26-22-48-48-48s-48 21-48 48c0 22 35 64 45 76 2 2 4 2 6 0z"/><glyph glyph-name="ion-md-backspace" unicode="" horiz-adv-x="426" d="M390 352c20 0 36-16 36-36V68c0-20-16-36-36-36H124c-12 0-22 7-28 16L0 192l96 144c6 9 16 16 28 16h266zm-53-224l-63 64 63 64-25 25-64-64-63 64-25-25 64-64-64-64 25-25 63 64 64-64z"/><glyph glyph-name="ion-md-paper-plane" unicode="" d="M0 177l416 223L312-16 208 88 134-16l-15 148zM295 51l73 288L77 183l69-25 181 138-115-161z"/><glyph glyph-name="ion-ios-cart" unicode="" d="M88 24c0 13 10 24 23 24s25-11 25-24-11-24-24-24-24 11-24 24zM336 0c-13 0-24 12-24 25s12 23 25 23 23-12 23-25-11-23-24-23zm80 316v-3l-16-116c0-3-2-5-5-5l-278-47 4-24c3-16 7-23 11-26 3-3 7-3 9-3h237c8 0 14-6 14-14s-6-14-14-14H141c-13 0-25 5-33 16-7 9-12 22-14 36L54 328s-2 9-2 10c-1 7-5 15-10 16s-17 2-26 2-16 5-16 14 7 14 16 14c27 0 41 0 49-9 6-8 8-12 12-19 1-3 5-4 8-4l325-32c2 0 5-2 6-4z"/><glyph glyph-name="ion-ios-rose" unicode="" horiz-adv-x="320" d="M320 307c-77-89-16-136-16-204S248-16 160-16 16 31 16 99c0 60 35 100 93 131 25 14 33 17 52 26 30 13 65 27 105 38 17 5 35 9 54 13zM39 206c5 38 3 91-39 135 0 0 66-15 115-41 14-8 28-17 37-27-12-6-24-11-36-17-7-4-14-7-20-11-25-14-44-29-57-39zm217 164s26-29 32-51c-33-7-78-20-115-36-15 15-43 32-43 32 52 56 126 55 126 55zm-112-19c-12-8-21-16-31-27-26 12-41 18-62 24 5 14 14 31 29 52 0 0 35-11 64-49z"/><glyph glyph-name="ion-ios-refresh" unicode="" horiz-adv-x="384" d="M369 159c9 0 16-7 15-16-8-98-91-175-192-175C86-32 0 53 0 159c0 104 84 189 188 191 2 0 4 2 4 4v46c0 13 14 21 25 14l96-67c10-6 10-21 0-27l-96-67c-11-7-25 0-25 13v50c0 2-2 4-4 4-88-2-158-73-158-161C30 70 102-2 192-2c85 0 155 65 162 148 1 8 7 13 15 13z"/><glyph glyph-name="ion-md-musical-note" unicode="" horiz-adv-x="256" d="M128 384h128v-85h-85V85c0-47-39-85-86-85S0 38 0 85s38 86 85 86c16 0 30-5 43-12v225z"/><glyph glyph-name="ion-md-list-box" unicode="" horiz-adv-x="384" d="M344 384c22 0 40-18 40-40V40c0-22-18-40-40-40H40C18 0 0 18 0 40v304c0 22 18 40 40 40h304zM240 80v48H80V80h160zm64 88v48H80v-48h224zm0 88v48H80v-48h224z"/><glyph glyph-name="ion-ios-mail" unicode="" d="M413 301c1 1 3 0 3-2V80c0-18-14-32-32-32H32C14 48 0 62 0 80v219c0 2 2 3 3 2l108-110c1-1 1-2 0-3l-75-80c-5-5-5-13 0-18 2-2 6-4 9-4s7 2 9 4l75 80c1 1 2 1 3 0l18-18c16-16 36-25 58-25s43 8 58 24l18 19c1 1 2 1 3 0l75-80c2-2 6-4 9-4s7 2 9 4c5 5 5 13 0 18l-75 80c-1 1-1 2 0 3zM208 153c-15 0-29 6-39 16L12 329c5 4 12 7 20 7h352c8 0 14-3 20-7L247 169c-10-11-24-16-39-16z"/><glyph glyph-name="ion-md-ice-cream" unicode="" horiz-adv-x="320" d="M32 192h256L160-32zm264 95c14-4 24-16 24-31 0-18-14-32-32-32H32c-18 0-32 14-32 32 0 15 10 27 24 31-2 6-2 15-2 21 0 42 34 76 76 76 8 0 10-1 17-3-5-12-3-22-1-31l3-1c2 15 11 29 11 29 18 23 46 38 77 38 53 0 96-43 96-96 0-10-2-24-5-33z"/><glyph glyph-name="ion-md-at" unicode="" d="M218 236c2 0 4-1 6-1s5-1 7-1l-7-66c-3-8-7-13-11-16s-8-5-14-5-10 3-13 9-4 15-3 27c2 18 5 30 11 39s14 14 24 14zm-10 164c115 0 208-93 208-208S323-16 208-16 0 77 0 192s93 208 208 208zm128-202c2 40-8 72-29 95s-51 35-91 35-73-13-97-37-37-57-39-99 9-76 31-100 53-36 94-36c10 0 21 1 31 3s19 6 26 10l-6 24c-7-3-15-5-24-7s-18-2-26-2c-31 0-55 10-71 29s-24 46-22 79c2 34 12 61 30 81s42 30 72 30c31 0 55-10 70-28s22-44 20-77c-1-16-4-30-11-40s-16-15-27-15c-3 0-5 2-7 5s-2 10-2 18l8 83h-1 1c-9 5-18 9-25 11s-17 4-29 4c-17 0-33-7-45-22s-19-35-22-59c-2-19 1-34 9-46s19-17 34-17c8 0 17 2 23 6s11 10 15 18c2-8 7-14 13-18s13-7 21-7c25 0 44 7 56 23s19 35 20 56z"/><glyph glyph-name="ion-ios-create" unicode="" horiz-adv-x="448" d="M372 362c3 3 9 3 12 0l26-26c3-3 3-9 0-12L208 122c-2-2-4-2-6-2h-26c-4 0-8 4-8 8v26c0 2 0 4 2 6zm72 19c3-3 4-8 4-12s-1-8-4-11l-12-12c-2-2-3-2-5 0l-22 22-10 10c-2 2-2 4 0 6l11 12c3 3 8 4 12 4s8-1 11-4v-1zM218 106l1 1 148 147c2 2 6 2 6-2V43c0-32-26-59-58-59H59C27-16 0 11 0 43v224c0 32 27 58 59 58h241c4 0 4-5 2-7L155 171l-1-1c-3-3-5-7-5-11v-42c0-9 7-16 16-16h42c4 0 8 2 11 5z"/><glyph glyph-name="ion-logo-chrome" unicode="" horiz-adv-x="448" d="M157 192c0 37 30 67 67 67s67-30 67-67-30-67-67-67-67 30-67 67zm288 38c2-12 3-25 3-38C448 86 374-3 274-26c-10-2-20-4-30-5-7-1-13-1-20-1-8 0-17 0-25 1v1l102 177c8 13 13 28 13 45 0 27-13 50-32 67h156c3-9 5-19 7-29-2 10-4 20-7 29 3-9 5-19 7-29zM224 103c10 0 20 2 29 5L175-27C133-18 96 3 67 32 25 73 0 129 0 192c0 31 6 61 18 88 7 16 16 31 26 45l103-178c16-27 43-44 77-44zM59 343v1c24 26 55 47 90 59 23 8 49 13 75 13 73 0 138-36 179-90h1c10-14 18-29 25-44-7 15-15 30-25 44h-1c10-14 19-29 26-44H224c-44 0-79-32-87-72z"/><glyph glyph-name="ion-md-volume-mute" unicode="" horiz-adv-x="192" d="M0 256h85l107 112V16L85 128H0v128z"/><glyph glyph-name="ion-md-skip-forward" unicode="" horiz-adv-x="384" d="M0 384l277-192L0 0v384zM320 0v384h64V0h-64z"/><glyph glyph-name="ion-ios-infinite" unicode="" horiz-adv-x="464" d="M433 266c20-20 31-46 31-74s-12-54-32-74-47-30-75-30-55 10-75 30L157 241c-14 13-32 20-51 20s-36-7-50-20c-13-13-21-31-21-49s8-36 21-49c14-13 31-20 50-20s37 7 51 20l31 30c2 2 3 2 5 0l20-19c2-2 2-4 0-6l-31-30c-20-20-48-30-76-30s-55 10-75 30-31 46-31 74 11 54 31 74 47 30 75 30 56-10 76-30l125-123c14-13 32-20 51-20s36 7 50 20c13 13 20 31 20 49s-7 36-20 49c-14 13-31 20-50 20s-37-7-51-20l-31-30c-2-2-3-2-5 0l-20 19c-2 2-2 4 0 6l31 30c20 20 48 30 76 30s55-10 75-30z"/><glyph glyph-name="ion-logo-windows" unicode="" horiz-adv-x="448" d="M448 183V-32L200 4v179h248zm-264 0V6L0 33v150h184zm264 233V199H200v182zm-264-38V199H0v153z"/><glyph glyph-name="ion-md-microphone" unicode="" horiz-adv-x="256" d="M256 336h-56v-37h56v-43h-56v-37h56v-43h-56v-37h56V97c0-29-25-52-55-52h-30v-77H85v77H55C25 45 0 68 0 97v42h152v37H0v43h152v37H0v43h152v37H0v28c0 29 25 52 55 52h146c30 0 55-23 55-52v-28z"/><glyph glyph-name="ion-ios-share-alt" unicode="" horiz-adv-x="384" d="M381 218c2-2 3-7 3-10s0-6-3-8L238 66c-5-5-14-2-14 5v65c0 2-2 5-4 5C122 140 59 97 8 33c-3-3-9 1-8 5 21 109 80 214 220 236 2 0 4 2 4 4v66c0 5 6 8 10 8 2 0 4 0 6-2z"/><glyph glyph-name="ion-md-wine" unicode="" horiz-adv-x="384" d="M171 171L0 341v43h384v-43L213 171V40h107V0H64v40h107v131zM96 299h192l43 42H53z"/><glyph glyph-name="ion-md-skip-backward" unicode="" horiz-adv-x="384" d="M107 192l277 192V0zM0 0v384h64V0H0z"/><glyph glyph-name="ion-ios-bug" unicode="" horiz-adv-x="448" d="M343 321c-6-16-17-31-29-43-24-24-56-37-90-37s-67 13-91 37c-12 12-22 27-28 43 29 39 72 63 119 63s90-24 119-63zM90 298c22-45 69-80 122-83V0c-40 2-73 23-100 55l-5-5c-5-4-6-11-4-17 3-8 1-18-5-25C89-2 74-3 64 6s-11 24-2 34l3 3 2 1c4 13 13 26 27 37-15 26-26 56-29 89-2 0-4-1-6-1-6-1-10-4-12-9-4-10-14-17-25-16-12 1-21 10-22 22-1 14 10 26 24 26h3c4 2 8 5 12 6 7 2 14 4 25 4 1 23 6 45 13 65-6 4-11 7-15 11-5 4-9 9-12 14-2 3-3 5-6 7-2 1-4 3-6 5-7 7-7 18-3 27 6 12 21 17 33 10 11-6 15-20 10-31 2-4 4-7 6-9s6-3 6-3zm334-106c14 0 25-12 24-26-1-12-10-21-22-22-11-1-20 6-24 15-2 6-7 9-13 10-2 0-4 1-6 1-3-33-14-64-29-90 14-11 23-23 27-36 0 0 1 0 2-1l3-3c9-10 8-25-2-34s-25-8-34 2c-6 7-8 16-5 24 2 6 1 14-4 18-2 1-3 2-5 4-27-32-60-52-100-54v215c53 3 100 37 122 82 0 0 4 2 6 4 3 3 4 6 6 9-5 11-1 25 10 31 12 6 27 3 33-9s3-27-9-33c-2-1-5-4-6-6-3-5-7-11-12-15-4-4-9-7-15-11 7-20 12-42 13-65 11 0 18-2 25-4 4-1 8-4 12-6h3z"/><glyph glyph-name="ion-ios-help-circle" unicode="" d="M208 400c115 0 208-93 208-208S323-16 208-16 0 77 0 192s93 208 208 208zm-4-304c12 0 21 9 21 21s-9 20-21 20-22-8-22-20 10-21 22-21zm40 97c18 11 28 24 28 44 0 30-25 51-63 51-40 0-64-23-65-55h36c1 15 11 25 26 25s27-10 27-22-7-19-24-29c-18-11-25-23-23-44v-8h35v8c0 13 6 20 23 30z"/><glyph glyph-name="ion-md-bulb" unicode="" horiz-adv-x="288" d="M80 20v18h128V20c0-11-9-20-20-20h-88C89 0 80 9 80 20zm64 364c80 0 144-60 144-134 0-46-25-87-62-111V96c0-11-9-19-20-19H82c-11 0-21 8-21 19v43C24 163 0 204 0 250c0 74 64 134 144 134z"/><glyph glyph-name="ion-ios-document" unicode="" horiz-adv-x="304" d="M208 293c-10 0-19 9-19 19v72c0 4 3 8 7 8 8 0 15-3 21-8l76-63c7-6 11-14 11-23 0-3-2-5-5-5h-91zm-45 19c0-25 20-45 45-45h96V24c0-18-14-32-32-32H32C14-8 0 6 0 24v336c0 18 14 32 32 32h131v-80z"/><glyph glyph-name="ion-ios-search" unicode="" horiz-adv-x="384" d="M380 28c6-7 6-18-1-24-3-3-7-4-11-4s-9 2-12 5L250 112c-26-21-60-34-97-34C68 78 0 147 0 231s68 153 153 153 153-69 153-153c0-36-12-69-33-95zm-227 83c32 0 62 12 85 35s35 53 35 85-12 62-35 85-53 35-85 35-62-12-85-35-35-53-35-85 12-62 35-85 53-35 85-35z"/><glyph glyph-name="ion-logo-youtube" unicode="" horiz-adv-x="512" d="M509 299c2-36 3-71 3-107s-1-71-3-107c0-45-33-81-74-81-58-3-118-4-179-4S135 1 77 4C36 4 3 40 3 85c-2 36-3 71-3 107s2 71 4 107c0 45 32 81 73 81 55 3 112 4 170 4h18c58 0 115-1 170-4 41 0 74-36 74-81zM207 94l145 98-145 99V94z"/><glyph glyph-name="ion-md-aperture" unicode="" horiz-adv-x="448" d="M224 416c124 0 224-100 224-224S348-32 224-32 0 68 0 192s100 224 224 224zM360 56c36 36 56 85 56 136s-20 100-56 136-85 56-136 56-100-20-136-56-56-85-56-136S52 92 88 56 173 0 224 0s100 20 136 56zM168 342l56-86H77c17 40 50 71 91 86zm213-182H279l72 129c21-27 33-60 33-97 0-11-1-22-3-32zm-53 154l-49-90-78 126c8 1 15 2 23 2 40 0 76-14 104-38zM67 224h102L97 95c-21 27-33 60-33 97 0 11 1 22 3 32zM280 42l-56 86h147c-17-40-50-71-91-86zM120 70l49 90 78-126c-8-1-15-2-23-2-40 0-76 14-104 38z"/><glyph glyph-name="ion-md-list" unicode="" horiz-adv-x="352" d="M0 120v48h256v-48H0zm0 96v48h320v-48H0zm0 96v48h352v-48H0zM0 24v48h288V24H0z"/><glyph glyph-name="ion-ios-power" unicode="" horiz-adv-x="384" d="M316 336c43-36 68-89 68-145C384 86 298 0 192 0S0 86 0 191c0 56 25 109 68 145 3 3 8 5 12 5 5 0 9-3 13-7 3-4 5-8 5-13s-3-10-7-13c-35-29-55-72-55-117 0-85 70-155 156-155s156 70 156 155c0 45-20 87-55 117-4 3-7 8-7 13s2 9 5 13 9 7 14 7c4 0 8-2 11-5zM193 174c-10 0-19 8-19 18v174c0 10 9 18 19 18s18-8 18-18V192c0-10-8-18-18-18z"/><glyph glyph-name="ion-md-grid" unicode="" horiz-adv-x="384" d="M346 384c21 0 38-17 38-38V38c0-21-17-38-38-38H38C17 0 0 17 0 38v308c0 21 17 38 38 38h308zM115 38v77H38V38h77zm0 116v76H38v-76h77zm0 115v77H38v-77h77zM230 38v77h-76V38h76zm0 116v76h-76v-76h76zm0 115v77h-76v-77h76zM346 38v77h-77V38h77zm0 116v76h-77v-76h77zm0 115v77h-77v-77h77z"/><glyph glyph-name="ion-ios-glasses" unicode="" horiz-adv-x="446" d="M432 207c8 0 14-7 14-15s-6-15-14-15h-7c-3-21-13-40-28-55-17-17-40-26-64-26-51 0-93 43-93 96 0 6-7 15-17 15s-17-9-17-15c0-53-42-96-93-96-24 0-47 9-64 26-15 15-25 34-28 55h-7c-8 0-14 7-14 15s6 15 14 15h7c3 21 13 40 28 55 17 16 40 26 64 26 20 0 40-6 56-19 14-11 24-25 30-42 7 5 16 7 24 7s17-2 24-7c6 17 16 31 30 42 16 13 36 19 56 19 24 0 47-9 64-26 15-15 25-34 28-55h7z"/><glyph glyph-name="ion-md-hand" unicode="" horiz-adv-x="414" d="M401 174c15-15 18-36 3-51 0 0-96-103-126-121-28-21-65-34-100-34C123-32 77 4 61 53v1c0 1-1 2-1 3L2 246c-5 15 2 32 17 37s30-3 35-18l34-88c1-4 2-2 2 1L68 339c-3 15 7 30 22 33s30-8 33-23l25-138c0-2 2-2 2 0v177c0 15 13 28 28 28s28-13 28-28l8-175c0-5 3-4 4-1l23 135c2 15 16 27 31 25s27-17 25-32l-21-172c-1-12-3-30 2-36 8-9 20-9 31 2l42 42c15 15 35 13 50-2z"/><glyph glyph-name="ion-ios-bluetooth" unicode="" horiz-adv-x="256" d="M250 115c7-6 7-16 1-23L135-28c-2-2-6-4-9-4-6 0-11 5-11 11v170L30 75c-7-6-19-5-25 2s-5 18 2 24l108 91L6 284c-7 6-8 17-2 24s18 7 25 1l86-73v169c0 6 5 11 11 11 3 0 7-2 9-4l116-121c6-7 6-17-1-23l-88-76zm-99 232c-1 1-3 1-3-1V227c0-2 2-3 3-2l63 53c1 1 1 2 0 3zm-3-309c0-2 2-2 3-1l63 65c1 1 1 2 0 3l-63 53c-1 1-3 0-3-2V38z"/><glyph glyph-name="ion-ios-time" unicode="" d="M208 400c115 0 208-93 208-208S323-16 208-16 0 77 0 192s93 208 208 208zm14-226v146c0 8-6 14-14 14s-14-6-14-14V188h-82c-8 0-14-6-14-14s6-14 14-14h96c8 0 14 6 14 14z"/><glyph glyph-name="ion-ios-trending-up" unicode="" horiz-adv-x="448" d="M433 320c8 0 15-7 15-15V187c0-8-7-15-15-15s-15 7-15 15v82L268 117c-3-3-6-4-10-4s-8 1-11 4l-86 84L26 68c-3-3-7-4-11-4s-8 1-11 4-4 6-4 10c0 6 2 9 4 11l146 143c3 3 7 5 11 5s8-2 11-5l86-84 138 142h-84c-8 0-15 7-15 15s7 15 15 15h121z"/><glyph glyph-name="ion-md-contact" unicode="" d="M208 400c114 0 208-94 208-208S322-16 208-16 0 78 0 192s94 208 208 208zm0-62c-34 0-62-29-62-63s28-62 62-62 62 28 62 62-28 63-62 63zm0-301c52 0 98 27 125 67-1 42-83 64-125 64S84 146 83 104c27-40 73-67 125-67z"/><glyph glyph-name="ion-md-close-circle" unicode="" d="M208 400c115 0 208-93 208-208S323-16 208-16 0 77 0 192s93 208 208 208zm104-283l-75 75 75 75-29 29-75-75-75 75-29-29 75-75-75-75 29-29 75 75 75-75z"/><glyph glyph-name="ion-logo-sass" unicode="" horiz-adv-x="512" d="M512 119v-8c-1-9-7-17-15-22s-12-4-13-3 1 3 4 5c13 8 17 20 10 33-5 10-15 16-26 20-24 8-48 7-72 0 4-12 7-23-2-34-10-12-23-19-39-22-7-2-14 2-15 9-3 19 17 36 30 47-7 11-11 24-14 37-15-17-31-40-26-61 3-14-1-27-14-36s-30-14-46-11c-4 1-6 5-5 8 2 14 25 32 35 43 2 2 3 4 1 7-6 12-10 23-14 36-13-29-30-80-57-98-9-6-17-4-21 5-3 8-2 20-1 29-6-13-11-27-20-38-7-8-24-7-30 1-16 21-13 50-5 73l-29-15c7-16 8-32 4-49-5-19-17-35-35-46-19-12-64-24-77 4-7 16-4 30 6 44 17 24 48 37 74 50-32 23-80 42-96 80-15 35 17 68 43 89 59 48 166 95 244 59 15-7 36-24 31-52-4-24-13-39-28-54-32-32-152-77-176-15-1 1-1 4 1 4 2-1 20-15 43-16 17-1 36 3 52 8 33 11 71 33 80 67 4 13-2 28-15 34-49 24-116-4-159-26-33-17-84-45-82-87 1-37 56-60 81-82 15 7 42 15 52 27 11 13 26 25 44 26 8 0 14-3 16-10 2-6 1-11 0-19 5 4 11 4 15-1 12-14-22-50-10-66 14 14 21 42 30 59 4 8 17 51 26 53 7 2 18 4 25 0 2-1 3-3 2-5-7-19-7-33 3-52 14 20 29 43 34 67 1 2 3 3 5 4 7 2 18 3 25 0 3-1 3-2 2-5-7-22-6-38 6-58 31 11 69 15 97-5-3 2-7 5 0 0 5-4 3-2 0 0 12-8 19-18 21-32zM113 94c1 7-1 13-3 20-24-8-66-35-64-62 1-10 8-13 17-12s19 7 27 13c14 11 22 24 23 41zm103 72c1 3-2 5-5 4-29-8-43-57-33-81 1-3 4-3 6-1 17 16 28 56 32 78zm70-82c8-3 27 17 26 27-8-9-18-18-26-27zm81 18c11 6 16 19 12 30-8-6-21-19-20-31 0-2 6 0 8 1z"/><glyph glyph-name="ion-ios-apps" unicode="" horiz-adv-x="384" d="M371 310c18-8 18-21 0-29l-148-67c-17-8-45-8-62 0L13 281c-18 8-18 21 0 29l150 68c16 7 43 7 59 0zM161 73c17-8 45-8 62 0l100 45c4 2 9 2 13 0l35-16c18-8 18-21 0-29L223 6c-17-8-45-8-62 0L13 73c-18 8-18 21 0 29l35 16c4 2 10 2 14 0zm210 133c18-8 18-21 0-29l-148-67c-17-8-45-8-62 0L13 177c-18 8-18 21 0 29l32 15c4 2 9 2 13 0l108-49c15-5 37-5 52 0l108 49c4 2 9 2 13 0z"/><glyph glyph-name="ion-ios-outlet" unicode="" d="M311 370c3 0 6 0 8-2 58-37 97-102 97-176S377 54 319 16c-2-2-5-2-8-2H105c-3 0-6 0-8 2C39 54 0 118 0 192s39 139 97 176c2 2 5 2 8 2h206zM145 177c2 0 4 2 4 4v111c0 2-2 4-4 4h-22c-2 0-4-2-4-4V181c0-2 2-4 4-4h22zm89-119c2 0 4 2 4 4v41c0 16-14 30-30 30s-30-15-30-31V62c0-2 2-4 4-4h52zm59 134c2 0 4 2 4 4v81c0 2-2 4-4 4h-22c-2 0-4-2-4-4v-81c0-2 2-4 4-4h22z"/><glyph glyph-name="ion-ios-tablet-landscape" unicode="" horiz-adv-x="448" d="M7 345c4 4 11 7 17 7h400c6 0 13-3 17-7s7-11 7-17V56c0-6-3-13-7-17s-11-7-17-7H24c-6 0-13 3-17 7S0 50 0 56v272c0 6 3 13 7 17zm10-153c0-4 3-7 7-7s7 3 7 7-3 7-7 7-7-3-7-7zm421 0c0 8-6 14-14 14s-14-6-14-14 6-14 14-14 14 6 14 14zm-38 144H48V48h352v288z"/><glyph glyph-name="ion-md-arrow-dropdown-circle" unicode="" d="M208 400c115 0 208-93 208-208S323-16 208-16 0 77 0 192s93 208 208 208zm0-272l96 96H112z"/><glyph glyph-name="ion-logo-flickr" unicode="" horiz-adv-x="384" d="M288 384c53 0 96-43 96-96V96c0-53-43-96-96-96H96C43 0 0 43 0 96v192c0 53 43 96 96 96h192zM120 144c26 0 48 22 48 48s-22 48-48 48-48-22-48-48 22-48 48-48zm144 0c26 0 48 22 48 48s-22 48-48 48-48-22-48-48 22-48 48-48z"/><glyph glyph-name="ion-md-tv" unicode="" horiz-adv-x="448" d="M407 372c22 0 41-18 41-40V92c0-22-19-40-41-40H305V12H142v40H41C19 52 0 70 0 92v240c0 22 19 40 41 40h366zm0-280v240H41V92h366z"/><glyph glyph-name="ion-ios-bowtie" unicode="" horiz-adv-x="448" d="M259 234c10-17 19-53 17-85-1-17-5-22-5-22s-12-7-36-7h-11c-35 3-40 15-40 15s4 12 8 43 0 58 0 58 7 5 19 7c8 2 17 3 23 3 11 0 20-4 25-12zm-85 5s3-16 2-32v-10c0-3-1-6-1-10 0-5 0-10-1-15l-2-10c-4-21-10-34-10-34S85 48 52 48C24 48 0 116 0 192s26 144 52 144c35 0 100-57 122-97zm222 97c26 0 52-68 52-144S424 48 396 48c-37 0-98 69-106 79 0 0 4 5 5 22v17c0 11-2 23-4 33l-3 11c-3 10-7 18-10 24 0 1-2 4-2 4l1 1c22 40 83 97 119 97z"/><glyph glyph-name="ion-ios-barcode" unicode="" d="M74 60c4 0 7-2 10-5s4-6 4-10c0-8-7-13-15-13H17C7 32 0 38 0 48v288c0 10 8 16 18 16h54c4 0 9-1 12-4s4-6 4-10c0-8-7-14-15-14H33c-2 0-4-2-4-4V64c0-2 2-4 4-4h41zm325 292c10 0 17-6 17-16V48c0-10-7-16-17-16h-57c-4 0-7 1-10 4s-4 6-4 10c0 8 7 14 15 14h40c2 0 4 2 4 4v256c0 2-2 4-4 4h-41c-5 0-9 3-12 8 0 1-1 1-1 2-3 10 4 18 14 18h56zM74 272c8 0 14-6 14-14V126c0-8-6-14-14-14s-14 6-14 14v132c0 8 6 14 14 14zm268-160c-8 0-14 6-14 14v132c0 8 6 14 14 14s14-6 14-14V126c0-8-6-14-14-14zm-64 192c8 0 14-6 14-14V94c0-8-6-14-14-14s-14 6-14 14v196c0 8 6 14 14 14zm-140 0c8 0 14-6 14-14V94c0-8-6-14-14-14s-14 6-14 14v196c0 8 6 14 14 14zm70-16c8 0 14-6 14-14V110c0-8-6-14-14-14s-14 6-14 14v164c0 8 6 14 14 14z"/><glyph glyph-name="ion-ios-shirt" unicode="" horiz-adv-x="413" d="M413 266l-62-64c-2-3-7-1-7 3v45c0 5-5 10-11 9-4-1-7-5-7-9V8c0-4-4-8-8-8H96c-4 0-8 4-8 8v242c0 5-5 10-11 9-4-1-7-5-7-9v-45c0-4-5-6-7-3L1 266c-1 2-1 4 0 6 12 12 61 63 89 83 20 15 41 29 63 29s22-8 54-8 32 8 54 8 42-14 62-29c28-20 77-71 89-83 1-2 2-4 1-6zm-206 39c30 0 54 13 54 36 0 30-24 11-54 11s-54 19-54-11c0-23 24-36 54-36z"/><glyph glyph-name="ion-md-home" unicode="" d="M160 0H62v192H0l208 192 208-192h-62V0h-98v128h-96V0z"/><glyph glyph-name="ion-ios-cafe" unicode="" d="M322 44c8 0 14-7 14-15s-7-13-15-13H62c-8 0-14 7-14 15s6 13 14 13h260zm29 286c39-14 65-49 65-88 0-25-11-49-30-67s-45-27-72-27h-6c-16-28-36-50-58-64-19-12-38-20-44-20h-60c-9 0-46 12-78 49-18 21-33 47-44 79-14 38-22 84-24 136 0 11 4 22 12 30 7 7 17 10 27 10h274c10 0 19-3 26-10 8-8 12-17 12-28zm-29-154c37 3 66 32 66 66 0 13-5 26-13 37-7 9-16 16-26 21-4-47-13-90-27-124z"/><glyph glyph-name="ion-md-navigate" unicode="" horiz-adv-x="320" d="M160 384L320 15 305 0 160 64 15 0 0 15z"/><glyph glyph-name="ion-md-arrow-round-down" unicode="" horiz-adv-x="332" d="M9 163c-12 12-12 31 0 43s34 12 46 0l79-83v214c0 17 14 31 32 31s32-14 32-31V123l79 83c12 12 34 12 46 0s12-31 0-43L189 25c-6-6-14-9-23-9s-17 3-23 9z"/><glyph glyph-name="ion-md-color-fill" unicode="" horiz-adv-x="448" d="M104 370l30 30 257-256-54-11L184-16 0 162l142 141zm184-208L186 265 83 162h205zm103-18s57-61 57-92-26-56-57-56-56 25-56 56 56 92 56 92z"/><glyph glyph-name="ion-ios-star-half" unicode="" horiz-adv-x="448" d="M431 256c9 0 17-7 17-16 0-4-2-8-5-11l-3-2-120-86L366 6c2-7 1-14-5-18-3-2-6-4-9-4s-7 2-10 4L224 72 106-12c-3-2-7-4-10-4s-6 2-9 4c-6 4-7 12-5 18l46 135L7 226c-5 4-7 7-7 11v3c0 9 7 16 16 16h148l45 133c2 6 8 11 15 11s13-5 15-11l45-133h147zm-47-35c3 2 1 7-3 7h-97c-12 0-23 8-27 19l-29 88c-1 2-4 2-4 0V125c0-12 6-23 16-30l78-56c3-2 7 1 6 5l-30 88c-4 12 0 25 10 32z"/><glyph glyph-name="ion-ios-person" unicode="" horiz-adv-x="384" d="M384 10c1-5-3-10-8-10H8C3 0-1 5 0 10c7 32 49 47 63 52 16 6 38 7 52 10 8 2 20 6 24 11s1 49 1 49-7 12-11 22-8 38-8 38-8 0-11 14c-3 16-9 22-8 34s7 11 7 11-6 16-7 51c-1 41 31 82 90 82 58 0 91-41 90-82-1-35-7-51-7-51s6 1 7-11-5-18-8-34c-3-14-11-14-11-14s-4-28-8-38-12-22-12-22-2-44 2-49 16-9 24-11c14-3 36-4 52-10 14-5 56-20 63-52z"/><glyph glyph-name="ion-md-settings" unicode="" d="M366 171l47-34c3-3 4-10 2-14l-43-71c-2-4-7-7-12-5l-54 21c-12-8-23-16-36-21l-8-55c-1-4-6-8-11-8h-85c-5 0-10 3-11 8l-8 55c-13 5-25 13-36 21L57 47c-4-2-10 1-12 5L2 123c-3 5-2 11 2 14l45 34c0 7-1 14-1 21s1 14 1 21L3 247c-3 3-4 10-2 14l43 71c2 4 7 7 12 5l54-21c12 8 23 16 36 21l8 55c1 4 6 8 11 8h85c5 0 10-4 11-8l7-55c13-5 25-13 36-21l53 21c4 2 11-1 13-5l43-71c3-5 2-11-2-14l-45-34c0-7 1-14 1-21s0-15-1-21zm-159-52c41 0 75 32 75 73s-34 73-75 73-74-32-74-73 33-73 74-73z"/><glyph glyph-name="ion-ios-lock" unicode="" horiz-adv-x="320" d="M280 256c22 0 40-18 40-40V24c0-22-18-40-40-40H40C18-16 0 2 0 24v192c0 22 18 40 40 40h24v48c0 53 44 97 97 96s95-44 95-97v-47h24zM174 131c11 5 18 16 18 29 0 18-15 33-34 32-16-1-29-13-30-29-1-14 6-26 18-32V62c0-8 7-14 15-14s13 6 13 14v69zm54 125v48c0 18-7 35-20 48s-30 20-48 20-35-7-48-20-20-30-20-48v-48h136z"/><glyph glyph-name="ion-ios-egg" unicode="" horiz-adv-x="320" d="M160 416c64 0 160-133 160-257S256-32 160-32 0 35 0 159s96 257 160 257z"/><glyph glyph-name="ion-ios-repeat" unicode="" horiz-adv-x="384" d="M273 290c4-4 6-9 6-15s-2-11-6-15l-36-36c-3-3-6-4-10-4s-7 1-10 4-4 7-4 11c0 3 2 7 4 9l16 16H78c-13 0-25-5-35-15s-15-22-15-35v-16c0-8-6-14-14-14s-14 6-14 14v16c0 21 8 40 23 55s34 23 55 23h157l-16 16c-2 2-4 6-4 9 0 5 2 10 7 13 1 1 2 2 3 2 5 1 10 0 14-4zm97-86c8 0 14-6 14-14v-16c0-43-35-78-78-78H149l16-16c2-2 4-6 4-9 0-5-2-10-7-13-1-1-2-1-3-1-5-1-10-1-14 3l-34 34c-4 4-6 9-6 15s2 12 6 16l36 35c3 3 6 4 10 4s7-1 10-4 4-7 4-11c0-3-2-7-4-9l-16-16h155c13 0 25 5 35 15s15 22 15 35v16c0 8 6 14 14 14z"/><glyph glyph-name="ion-ios-color-palette" unicode="" horiz-adv-x="384" d="M366 100c12-11 14-35 0-48-39-34-94-52-149-52h-1C161 0 105 18 63 55c-84 74-84 195 0 269 45 40 102 60 158 60 48 0 94-15 128-45 46-41 46-108 0-149l-30-27c-14-13-14-31 0-44 7-6 11-8 23-10 8-1 17-3 24-9zM56 232c0-18 14-32 32-32s32 14 32 32-14 32-32 32-32-14-32-32zm40-126c18 0 32 14 32 32s-14 32-32 32-32-14-32-32 14-32 32-32zm64 161c18 0 32 14 32 32s-14 32-32 32-32-14-32-32 14-32 32-32zm72-219c26 0 48 22 48 48s-22 48-48 48-48-22-48-48 22-48 48-48zm24 208c18 0 32 14 32 32s-14 32-32 32-32-14-32-32 14-32 32-32z"/><glyph glyph-name="ion-ios-alert" unicode="" d="M208 400c115 0 208-93 208-208S323-16 208-16 0 77 0 192s93 208 208 208zm17-110c0 10-7 18-17 18s-17-8-17-18l3-115c0-8 6-15 14-15s14 7 14 15zM208 94c11 0 19 8 19 18s-8 19-19 19-19-9-19-19 8-18 19-18z"/><glyph glyph-name="ion-ios-bus" unicode="" horiz-adv-x="320" d="M14 31c11-12 24-9 58-9 0-10 1-22-3-22H14c-4 0-5 7-6 29 0 3 4 4 6 2zm292 0c2 2 6 1 6-2-1-22-2-29-6-29h-55s-3 12-3 22c34 0 47-3 58 9zm-18 353c18 0 32-14 32-32V76c0-22-18-40-40-40H40C18 36 0 54 0 76v276c0 18 14 32 32 32h256zM66 72c12 1 21 10 22 22 1 15-11 27-26 26-12-1-21-10-22-22-1-15 11-27 26-26zm76 78c2 0 4 2 4 4v140c0 2-2 4-4 4H44c-9 0-16-7-16-16V166c0-9 7-16 16-16h98zm116-78c12 1 21 10 22 22 1 15-11 27-26 26-12-1-21-10-22-22-1-15 11-27 26-26zm34 94v116c0 9-7 16-16 16h-98c-2 0-4-2-4-4V154c0-2 2-4 4-4h98c9 0 16 7 16 16zm-15 162c9 0 15 6 15 14s-6 14-15 14H43c-9 0-15-6-15-14s6-14 15-14h234z"/><glyph glyph-name="ion-md-beer" unicode="" horiz-adv-x="448" d="M384 308c47 0 64-33 64-68v-96c0-35-14-68-64-68h-16V32c0-35-29-64-64-64H128C93-32 64-3 64 32v175c-26 0-48 22-48 48v55C6 321 0 336 0 352c0 35 29 64 64 64 18 0 34-8 46-20 10 12 26 20 43 20 14 0 27-6 37-14 12 9 26 14 42 14 17 0 34-6 46-16 11 10 26 16 42 16 35 0 64-29 64-64 0-15-7-29-16-38v-6h16zm-64-52v64h-20c-3-8-7-16-13-23-13-16-33-25-55-25-26 0-48 13-61 33-6-2-12-3-18-3-12 0-23 4-32 10-2 1-3 3-5 4-1-2-2-3-3-5l-1-1v-54h208zM64 320c9 0 18 4 24 11 2 2 3 4 4 6 0 0 6 10 12 11s20 6 30-5c4-5 11-9 19-9 3 0 5 1 7 2 3 1 7 2 9 4 3 2 6 4 10 4 7 0 12-4 14-10 0 0 1-1 1-2 1-3 1-5 3-8 7-12 20-20 35-20 13 0 26 6 33 16 5 7 7 15 7 24s9 8 9 8h55c6 0 13-3 15-9 1 3 1 6 1 9 0 18-14 32-32 32-9 0-17-4-23-10-2-2-6-5-16-6h-8c-6 1-11 3-13 5-7 7-17 11-28 11-9 0-18-4-25-9-2-2-4-5-6-7 0-1-1-1-2-2-3-3-7-5-11-5-5 0-8 3-11 6-1 2-2 3-3 5s-3 4-5 6c-4 4-10 6-16 6-10 0-18-9-25-16-7-8-27-8-34 0s-18 16-30 16c-18 0-32-14-32-32 0-2 1-5 1-7 2-9 7-17 15-21v-63c0-9 7-16 16-16v75zm336-176v96c0 18-6 24-24 24h-8V120h8c18 0 24 6 24 24z"/><glyph glyph-name="ion-md-snow" unicode="" horiz-adv-x="412" d="M411 150l-57-16 58-33-24-42-57 33 16-57-31-8-24 88-62 36V80l64-64-22-23-42 42v-67h-48v66L140-8l-22 22 64 65v71l-61-35-23-88-31 8 15 57-58-33-24 41 57 33-57 15 8 31 88-23 63 36-63 36-88-24-8 31 57 15-57 33 24 42 58-34-15 57 31 9 23-88 61-35v71l-64 65 22 22 42-42v66h48v-67l42 42 22-23-64-64v-71l62 36 24 88 31-9-16-57 57 33 24-42-58-33 57-15-8-31-88 24-60-35 60-35 88 23z"/><glyph glyph-name="ion-md-download" unicode="" horiz-adv-x="320" d="M320 248L160 90 0 248h91v136h138V248h91zM0 45h320V0H0v45z"/><glyph glyph-name="ion-md-star-outline" unicode="" horiz-adv-x="404" d="M404 238l-110-96L327 0 202 75 77 0l33 142L0 238l145 12 57 134 57-134zM219 103l60-36-16 68-5 19 15 12 53 46-70 6-19 2-8 18-27 64-27-64-8-18-19-2-70-6 53-46 15-12-5-19-16-68 60 36 17 10z"/><glyph glyph-name="ion-ios-microphone" unicode="" horiz-adv-x="288" d="M203 244c-7 0-12-5-12-12s5-12 12-12h73c7 0 12-5 12-12s-5-12-12-12h-73c-7 0-12-5-12-12s5-12 12-12h77c4 0 8-4 8-8 0-14-3-27-8-39-1-3-4-5-7-5H15c-3 0-6 2-7 5-5 12-8 25-8 39 0 4 4 8 8 8h77c7 0 12 5 12 12s-5 12-12 12H12c-7 0-12 5-12 12s5 12 12 12h73c7 0 12 5 12 12s-5 12-12 12H12c-7 0-12 5-12 12s5 12 12 12h73c7 0 12 5 12 12s-5 12-12 12H8c-4 0-8 4-8 8 2 47 31 88 73 106 5 2 11-1 11-7v-36c0-7 5-12 12-12s12 5 12 12v41c0 7 5 12 12 12s12-5 12-12v-57c0-7 5-12 12-12s12 5 12 12v57c0 7 5 12 12 12s12-5 12-12v-41c0-7 5-12 12-12s12 5 12 12v36c0 6 6 9 11 7 42-18 71-58 73-106 0-4-4-8-8-8h-77c-7 0-12-5-12-12s5-12 12-12h73c7 0 12-5 12-12s-5-12-12-12h-73zM30 89c-2 3 0 7 3 7h222c3 0 6-4 4-7-19-22-46-36-76-40-4 0-7-4-7-8V0c0-18-14-32-32-32s-32 14-32 32v41c0 4-3 8-7 8-30 4-56 18-75 40z"/><glyph glyph-name="ion-md-git-network" unicode="" horiz-adv-x="384" d="M384 352c0-24-13-44-32-55v-93l-128-64V87c19-11 32-31 32-55 0-35-29-64-64-64s-64 29-64 64c0 24 13 44 32 55v53L32 204v93c-19 11-32 31-32 55 0 35 29 64 64 64s64-29 64-64c0-24-13-44-32-55v-53l96-48 96 48v53c-19 11-32 31-32 55 0 35 29 64 64 64s64-29 64-64zM64 392c-22 0-40-18-40-40s18-40 40-40 40 18 40 40-18 40-40 40zM192-8c22 0 40 18 40 40s-18 40-40 40-40-18-40-40 18-40 40-40zm128 320c22 0 40 18 40 40s-18 40-40 40-40-18-40-40 18-40 40-40z"/><glyph glyph-name="ion-md-code-working" unicode="" horiz-adv-x="448" d="M158 94l-30-30L0 192l128 128 30-30-98-98zm132 0l98 98-98 98 30 30 128-128L320 64zm-166 78v40h40v-40h-40zm200 40v-40h-40v40h40zm-120-40v40h40v-40h-40z"/><glyph glyph-name="ion-md-phone-portrait" unicode="" horiz-adv-x="288" d="M247 416c23 0 41-19 41-41V9c0-22-18-41-41-41H41C18-32 0-13 0 9v366c0 22 18 41 41 41h206zm5-368v288H36V48h216z"/><glyph glyph-name="ion-ios-videocam" unicode="" horiz-adv-x="448" d="M419 294h20c5 0 9-3 9-8V98c0-5-4-9-9-9h-20c-3 0-7 1-10 3l-86 55c-2 2-4 4-4 7v76c0 3 2 5 4 7l86 55c3 2 7 2 10 2zM242 64H52C24 64 0 87 0 115v154c0 28 23 51 51 51h190c28 0 52-23 52-51V116c0-28-23-52-51-52z"/><glyph glyph-name="ion-logo-no-smoking" unicode="" horiz-adv-x="448" d="M328 144v48h16v-48h-16zm-248 0v48h82l48-48H80zm252 244c69-38 116-112 116-196C448 68 348-32 224-32c-24 0-47 4-68 11-2 1-3 1-5 2-12 4-24 9-35 15h-1C46 34 0 108 0 192c0 124 100 224 224 224 24 0 47-4 68-11 2-1 3-1 5-2 12-4 24-9 35-15zM224 22c37 0 72 12 100 32L86 292c-20-28-32-63-32-100 0-65 36-121 90-150 6-3 13-7 19-9 2-1 3-1 5-2 9-3 19-5 29-7 9-2 18-2 27-2zm138 71c20 28 32 62 32 99 0 66-37 123-91 151-6 3-12 6-18 8-2 1-3 1-5 2-9 3-19 5-29 7-9 2-18 2-27 2-37 0-71-12-99-32zm-42 99v-34l-34 34h34zm32-48v48h16v-48h-16zm-24 91c16-7 16-23 16-30v-1h-16v1c0 8-1 13-7 16-4 2-13 4-39 4h-3c-13 0-24 0-33 13-5 8-5 19-2 29-4 1-8 1-12 3-17 7-26 20-26 38 0 33 27 44 39 44v-16c-1 0-23-2-23-28 0-11 5-19 16-23 9-4 18-3 18-3 3 0 6-2 7-5s2-6 0-8c-5-7-7-18-4-22 4-6 7-6 20-6h3c24 0 37-2 46-6zm40-31h-16c0 28-4 37-7 42-6 10-14 14-25 14h-30c-3 0-5 2-6 4s-1 6 0 8c0 0 8 18 6 32-1 8-6 17-27 17v16c24 0 40-11 43-30 2-11 0-23-3-31h17c16 0 30-8 39-22 6-10 9-24 9-50z"/><glyph glyph-name="ion-md-add" unicode="" horiz-adv-x="320" d="M320 171H181V32h-42v139H0v42h139v139h42V213h139v-42z"/><glyph glyph-name="ion-md-arrow-dropup" unicode="" horiz-adv-x="256" d="M0 128l128 128 128-128H0z"/><glyph glyph-name="ion-ios-checkmark-circle" unicode="" d="M208 400c115 0 208-93 208-208S323-16 208-16 0 77 0 192s93 208 208 208zm106-150c2 2 2 3 0 5l-17 18c-1 1-2 2-3 2s-2-1-3-2L169 150l-44 45c-1 1-2 1-3 1s-2 0-3-1l-18-18c-2-2-2-4 0-6l56-56c4-4 8-5 12-5 5 0 10 3 12 5z"/><glyph glyph-name="ion-ios-link" unicode="" d="M232 107c15 1 23-17 13-27l-66-65c-20-20-46-31-74-31S51-5 31 15 0 61 0 89s10 55 30 75l69 68c8 8 18 15 28 20 6 3 12 5 19 7 1 0 3 1 4 1 5 1 11 3 16 3h7c4 0 7-1 11-1h6c22-4 42-14 58-30 12-12 20-25 24-41 2-8-2-17-10-19h-1c-8-2-16 2-19 10-4 10-9 19-17 27-12 12-29 20-47 21h-15c-5-1-10-2-15-4s-9-4-14-7c-4-3-8-6-12-10l-68-68c-14-14-22-32-22-52s8-37 22-51 31-22 51-22 38 8 52 22l64 64c3 2 6 5 10 5h1zm153 262c20-20 31-46 31-74s-10-55-30-75l-69-68c-8-8-18-15-28-20-6-3-12-5-19-7-6-2-14-3-20-3-3 0-4-1-7-1-4 0-7 1-11 1-24 2-47 13-64 30-12 12-20 24-24 38-3 9 3 18 12 20 8 2 16-2 19-10 4-10 9-18 16-25 12-12 29-20 47-21h15c5 1 10 2 15 4s9 5 14 8c4 3 8 5 12 9l68 68c14 14 22 32 22 52s-8 37-22 51-31 22-51 22-37-8-51-22l-64-63c-3-3-8-5-13-5-14 1-20 18-10 28l64 63c20 20 46 31 74 31s54-11 74-31z"/><glyph glyph-name="ion-md-checkbox-outline" unicode="" horiz-adv-x="384" d="M105 233l66-66 183 183 30-30-213-213-96 96zM341 43v170h43V43c0-23-20-43-43-43H43C20 0 0 20 0 43v298c0 23 20 43 43 43h213v-43H43V43h298z"/><glyph glyph-name="ion-md-cloud-upload" unicode="" horiz-adv-x="480" d="M387 231c52-3 93-46 93-99 0-55-45-100-100-100H120C54 32 0 86 0 152c0 62 47 113 107 119 25 48 75 81 133 81 73 0 133-52 147-121zm-115-59h68L240 272 140 172h68V96h64v76z"/><glyph glyph-name="ion-logo-instagram" unicode="" horiz-adv-x="384" d="M272 352H112c-21 0-41-9-56-24s-24-35-24-56V112c0-21 9-41 24-56s35-24 56-24h160c21 0 41 9 56 24s24 35 24 56v160c0 21-9 41-24 56s-35 24-56 24zm0 32c62 0 112-50 112-112V112C384 50 334 0 272 0H112C50 0 0 50 0 112v160c0 62 50 112 112 112h160zm24-112c-13 0-24 11-24 24s11 24 24 24 24-11 24-24-11-24-24-24zm-104-16c-35 0-64-29-64-64s29-64 64-64 64 29 64 64-29 64-64 64zm0 32c53 0 96-43 96-96s-43-96-96-96-96 43-96 96 43 96 96 96z"/><glyph glyph-name="ion-md-volume-high" unicode="" horiz-adv-x="384" d="M0 256h85l107 112V16L85 128H0v128zm288-64c0-38-21-73-53-88v177c32-16 53-51 53-89zm-53 192c85-20 149-99 149-192S320 20 235 0v45c62 19 106 78 106 147s-44 128-106 147v45z"/><glyph glyph-name="ion-md-help-buoy" unicode="" d="M208 400c115 0 208-93 208-208S323-16 208-16 0 77 0 192s93 208 208 208zm61-356c19 8 37 20 52 35s27 33 35 52l-40 12c-6-13-14-25-24-35s-22-18-35-24zM147 340c-19-8-37-20-52-35s-27-33-35-52l40-12c6 13 14 25 24 35s22 18 35 24zm61-84c-35 0-64-29-64-64s29-64 64-64 64 29 64 64-29 64-64 64zm113 49c-15 15-33 27-52 35l-12-40c13-6 25-14 35-24s18-22 24-35l40 12c-8 19-20 37-35 52zM95 79c15-15 33-27 52-35l12 40c-13 6-25 14-35 24s-18 22-24 35l-40-12c8-19 20-37 35-52z"/><glyph glyph-name="ion-md-restaurant" unicode="" horiz-adv-x="415" d="M116 168l-91 89c-34 33-34 86 0 119l153-148zm148 38l-33-31L381 30 351 0 201 146 51 0 21 30s163 159 211 207c-15 32-4 77 31 111 41 40 101 49 132 17 33-31 24-89-17-129-34-34-80-45-114-30z"/><glyph glyph-name="ion-md-body" unicode="" horiz-adv-x="384" d="M192 400c22 0 40-18 40-40s-18-40-40-40-40 18-40 40 18 40 40 40zm192-144H256V-16h-43v144h-42V-16h-43v272H0v43h384v-43z"/><glyph glyph-name="ion-md-crop" unicode="" d="M304 135v153H151v38h153c21 0 38-17 38-38V135h-38zm-192-33h304V64h-74v-80h-38v80H112c-21 0-38 17-38 38v186H0v38h74v74h38V102z"/><glyph glyph-name="ion-md-chatbubbles" unicode="" d="M85 80h219v-7c0-17-13-31-30-31H58L0-16v274c0 17 13 30 30 30h10V125c0-20 25-45 45-45zm296 320c19 0 35-16 35-35V51l-76 53H102c-19 0-35 16-35 35v226c0 19 16 35 35 35h279z"/><glyph glyph-name="ion-logo-rss" unicode="" horiz-adv-x="384" d="M56 112c31 0 56-25 56-56S87 0 56 0 0 25 0 56s25 56 56 56zM0 256c140 0 256-116 256-256h-80c0 48-14 94-48 128S48 176 0 176v80zm0 128c212 0 384-172 384-384h-80c0 171-133 304-304 304v80z"/><glyph glyph-name="ion-md-outlet" unicode="" horiz-adv-x="448" d="M338 416c61 0 110-51 110-113V81c0-62-49-113-110-113H110C49-32 0 19 0 81v222c0 62 49 113 110 113h228zM143 197v102c0 11-9 21-20 21h-23c-11 0-19-9-20-20V196c0-11 9-20 20-20h23c11 0 20 9 20 20v1zM265 50v31c0 23-18 42-41 42s-41-19-41-42V52c0-12 9-20 20-20h42c11 0 20 7 20 18zm103 147v102c0 11-9 21-20 21h-24c-11 0-19-9-20-20V196c0-11 9-20 20-20h24c11 0 20 9 20 20v1z"/><glyph glyph-name="ion-ios-information-circle-outline" unicode="" d="M187 276c0 11 10 20 21 20s21-9 21-20-10-20-21-20-21 9-21 20zm2-36h38V96h-38v144zm19 132c-48 0-93-19-127-53s-53-79-53-127S47 99 81 65s79-53 127-53 93 19 127 53 53 79 53 127-19 93-53 127-79 53-127 53zm0 28c115 0 208-93 208-208S323-16 208-16 0 77 0 192s93 208 208 208z"/><glyph glyph-name="ion-md-flash-off" unicode="" horiz-adv-x="408" d="M408 12l-24-24-140 140-72-144v192h-64v88L0 371l24 25zM300 240l-24-48-168 168v40h192l-64-160h64z"/><glyph glyph-name="ion-md-videocam" unicode="" horiz-adv-x="448" d="M352 228l96 98V58l-96 98V70c0-13-11-24-25-24H25C11 46 0 57 0 70v244c0 13 11 24 25 24h302c14 0 25-11 25-24v-86z"/><glyph glyph-name="ion-ios-square-outline" unicode="" horiz-adv-x="320" d="M292 352c15 0 28-13 28-28V60c0-15-13-28-28-28H28C13 32 0 45 0 60v264c0 15 13 28 28 28h264zm0-284v248c0 4-4 8-8 8H36c-4 0-8-4-8-8V68c0-4 4-8 8-8h248c4 0 8 4 8 8z"/><glyph glyph-name="ion-ios-information-circle" unicode="" d="M208 400c115 0 208-93 208-208S323-16 208-16 0 77 0 192s93 208 208 208zm19-304v144h-38V96h38zm-19 160c11 0 21 9 21 20s-10 20-21 20-21-9-21-20 10-20 21-20z"/><glyph glyph-name="ion-ios-heart-dislike" unicode="" horiz-adv-x="448" d="M392 21c6-6 6-14 0-20-2-2-5-2-7-3-5-1-9-1-13 3L4 363c-6 6-6 14 0 20s14 6 20 0zM32 279c0 10 1 20 4 30L306 44c-36-31-66-52-66-52S139 64 79 146c-32 43-47 96-47 133zm370-133c-16-22-33-42-52-61L68 362c20 18 47 30 76 30h1c40 0 75-21 95-52 20 31 55 52 95 52h1c62-1 112-51 112-113 0-37-14-90-46-133z"/><glyph glyph-name="ion-md-search" unicode="" horiz-adv-x="384" d="M274 143L384 33 351 0 242 110v17l-7 6c-25-21-58-34-93-34C63 99 0 162 0 241s63 143 141 143c79 0 142-64 142-143 0-36-13-68-34-93l7-5h18zm-132 0c55 0 99 43 99 98s-44 99-99 99-98-44-98-99 43-98 98-98z"/><glyph glyph-name="ion-ios-download" unicode="" horiz-adv-x="320" d="M280 304c22 0 40-18 40-40V24c0-22-18-40-40-40H40C18-16 0 2 0 24v240c0 22 18 40 40 40h107V124l-48 47c-5 5-13 5-18 0s-5-13 0-18l70-69c1-1 2-2 4-3s3-1 5-1c3 0 7 2 9 4l70 69c5 5 5 13 0 18s-13 5-18 0l-48-47v180h107zm-107 83v-83h-26v83c0 7 6 13 13 13s13-6 13-13z"/><glyph glyph-name="ion-ios-boat" unicode="" horiz-adv-x="400" d="M296 26s27-24 63-36c2-1 1-4-1-4-23 2-40 6-62 12-22-10-67-14-96-14s-73 5-96 14c-21-6-39-9-62-12-2 0-3 3-1 4 36 12 63 36 63 36 26-9 66-15 96-15s70 6 96 15zm94 159c6-3 10-9 10-16 0-2 0-5-1-7L344 26c-28 0-57 22-57 22-18-9-53-17-79-19h-16c-26 2-61 10-79 19 0 0-29-22-57-22L1 162c-1 2-1 5-1 7 0 7 4 13 10 16l187 85c2 1 4 1 6 0l187-85zm-234-25c7 0 12 10 12 22s-5 22-12 22-12-10-12-22 5-22 12-22zm88 0c7 0 12 10 12 22s-5 22-12 22-12-10-12-22 5-22 12-22zm92 161l18-97c1-3-2-5-5-4l-26 11c-1 0-2 2-2 3l-16 86c-3 11-7 16-16 16H112c-9 0-15-5-17-16l-16-86c0-1-1-3-2-3l-25-11c-3-1-7 1-6 4l18 97c5 26 17 47 40 47h34l2 8c4 14 16 24 31 24h57c15 0 27-10 31-24l2-8h35c22 0 34-20 40-47z"/><glyph glyph-name="ion-ios-volume-off" unicode="" horiz-adv-x="384" d="M326-16c-5 0-9 3-12 7L86 379c-4 7-2 15 5 19s15 2 19-5L338 5c4-7 2-15-5-19-2-1-5-2-7-2zM69 248l51 41 40-69V96c0-6-3-11-9-14-2-1-5-2-7-2-4 0-7 2-10 4l-65 52H16c-9 0-16 7-16 16v80c0 9 7 16 16 16h53zm315-56c0-53-19-103-53-143l-13 22c27 34 42 77 42 121 0 53-20 102-58 139-5 5-5 12 0 17s11 5 16 0c42-42 66-97 66-156zm-63 0c0-31-8-60-23-85l-15 24c9 19 14 39 14 61 0 37-14 72-40 98-5 5-5 12 0 17s12 5 17 0c30-31 47-71 47-115zm-67 0c0-3-1-7-1-10l-48 82c0 1 1 1 2 2 5 5 12 4 17-1 19-20 30-45 30-73z"/><glyph glyph-name="ion-logo-reddit" unicode="" horiz-adv-x="449" d="M259 160c0 18 14 31 32 31s32-13 32-31-14-32-32-32-32 14-32 32zm-132 0c0 18 14 31 32 31s32-13 32-31-14-32-32-32-32 14-32 32zm322 37c0-20-11-37-27-45 1-5 1-9 1-14C423 62 335 0 225 0S26 61 26 137c0 5 0 10 1 15-16 8-27 25-27 45 0 28 23 50 50 50 13 0 24-5 33-13 33 23 79 39 129 41h7l29 98 86-17c7 16 22 28 41 28 25 0 44-20 44-45s-19-45-44-45c-24 0-45 19-45 44l-69 14-24-77c50-2 96-18 129-41 9 8 21 13 34 13 27 0 49-22 49-50zm-74 169c-15 0-27-12-27-27s12-27 27-27 27 12 27 27-12 27-27 27zM18 197c0-11 6-21 14-27 7 19 20 38 37 53-5 4-12 6-19 6-18 0-32-14-32-32zM355 55c32 22 50 52 50 83v9c-1 6-3 12-5 18-6 16-15 30-30 43-4 4-10 8-15 12-35 24-80 37-130 37s-96-13-131-37c-5-4-11-8-15-12-15-13-24-27-30-43-2-6-4-12-5-18v-9c0-31 18-61 50-83 35-24 81-37 131-37s95 13 130 37zm62 115c8 6 14 16 14 27 0 18-13 32-31 32-7 0-15-2-20-6 17-15 30-34 37-53zM289 90l13-12c-1-1-29-30-77-30s-77 29-78 30l13 12s24-24 65-24c40 0 64 24 64 24z"/><glyph glyph-name="ion-ios-flashlight" unicode="" horiz-adv-x="170" d="M146 416c18 0 24-14 24-32H0c0 18 6 32 24 32h122zM25 300C9 318 0 333 0 368h170c0-33-10-50-25-68-8-9-12-19-12-31V3c0-22-18-35-40-35H77C55-32 37-19 37 3v266c0 12-4 22-12 31zm32-90v-36c0-16 13-28 28-28s28 12 28 28v36c0 16-13 28-28 28s-28-12-28-28zm8-35c0 11 9 20 20 20s20-9 20-20-9-20-20-20-20 9-20 20z"/><glyph glyph-name="ion-md-qr-scanner" unicode="" d="M48 324v-68H0v68c0 34 27 60 61 60h67v-48H60c-7 0-12-5-12-12zm308 60c33 0 60-26 60-60v-68h-48v68c0 7-6 12-13 12h-67v48h68zm12-323v67h48V61c0-34-26-61-60-61h-68v49h68c7 0 12 5 12 12zM60 49h68V0H61C27 0 0 27 0 61v67h48V61c0-7 5-12 12-12z"/><glyph glyph-name="ion-ios-navigate" unicode="" d="M208 400c115 0 208-93 208-208S323-16 208-16 0 77 0 192s93 208 208 208zm0-336l96 224-224-96h128V64z"/><glyph glyph-name="ion-md-power" unicode="" d="M231 400V169h-46v231h46zm112-50c45-38 73-95 73-158 0-115-93-208-208-208S0 77 0 192c0 63 28 120 73 158l33-33c-36-30-60-74-60-125 0-89 72-162 162-162s162 73 162 162c0 51-24 96-60 125z"/><glyph glyph-name="ion-ios-stopwatch" unicode="" horiz-adv-x="384" d="M352 304l-26 26c-3 3-3 8 0 11l12 11c3 3 8 3 11 0l25-25c3-3 3-8 0-11l-11-12c-3-3-8-3-11 0zm-331 0l-11 12c-3 3-3 8 0 11l25 25c3 3 8 3 11 0l12-11c3-3 3-8 0-11l-26-26c-3-3-8-3-11 0zm195 62c95-12 168-92 168-190 0-106-86-192-192-192S0 70 0 176c0 98 73 178 168 190v18c0 9 7 16 16 16h16c9 0 16-7 16-16v-18zm-10-219c11 5 18 16 18 29s-7 24-18 29v99c0 8-6 14-14 14s-14-6-14-14v-99c-11-5-18-16-18-29s7-24 18-29v-19c0-8 6-14 14-14s14 6 14 14v19z"/><glyph glyph-name="ion-md-key" unicode="" d="M201 224h215v-64h-43V96h-69v64H201c-14-40-53-72-98-72C46 88 0 135 0 192s44 104 101 104c45 0 86-32 100-72zm-97-66c19 0 34 15 34 34s-15 34-34 34-35-15-35-34 16-34 35-34z"/><glyph glyph-name="ion-ios-arrow-down" unicode="" horiz-adv-x="336" d="M168 154l127 127c9 9 25 9 34 0s9-25 0-34L185 103c-9-9-24-10-33-1L7 247c-5 5-7 11-7 17s2 12 7 17c9 9 25 9 34 0z"/><glyph glyph-name="ion-logo-linkedin" unicode="" horiz-adv-x="384" d="M353 384c18 0 31-13 31-30V33c0-17-13-33-31-33H33C15 0 0 16 0 33v321c0 17 15 30 33 30h320zM119 64v171H64V64h55zM93 261c18 0 30 13 30 29 0 17-11 30-29 30s-30-13-30-30c0-16 11-29 29-29zM320 64v100c0 51-27 75-63 75-29 0-42-17-50-28v24h-55V64h55v97c0 5 0 10 2 14 4 10 13 20 28 20 20 0 28-15 28-37V64h55z"/><glyph glyph-name="ion-ios-arrow-dropdown" unicode="" d="M100 237c8 8 19 8 27 0l81-81 81 79c8 8 19 8 27 0 4-4 6-8 6-13s-2-10-6-14l-94-94c-8-7-20-6-27 1l-95 95c-8 8-8 19 0 27zM0 192c0 115 93 208 208 208s208-93 208-208S323-16 208-16 0 77 0 192zm332 124c-33 33-77 52-124 52s-91-19-124-52-52-77-52-124 19-91 52-124 77-52 124-52 91 19 124 52 52 77 52 124-19 91-52 124z"/><glyph glyph-name="ion-ios-settings" unicode="" horiz-adv-x="384" d="M352 192c0-21 14-39 32-46-5-20-13-40-24-57-6 3-13 4-20 4-13 0-25-5-35-15-15-15-18-36-10-54-17-11-37-19-57-24-7 18-25 32-46 32s-39-14-46-32c-20 5-40 13-57 24 8 18 5 39-10 54-10 10-22 15-35 15-7 0-14-1-20-4-11 17-19 37-24 57 18 7 32 25 32 46s-14 39-32 46c5 20 13 39 24 57 6-3 13-4 20-4 13 0 25 4 35 14 15 15 18 37 10 55 17 11 37 19 57 24 7-18 25-32 46-32s39 14 46 32c20-5 40-13 57-24-8-18-5-40 10-55 10-10 22-14 35-14 7 0 14 1 20 4 11-17 19-37 24-57-19-7-32-25-32-46zm-159-80c44 0 80 36 80 80s-36 80-80 80-80-36-80-80 36-80 80-80z"/><glyph glyph-name="ion-md-sad" unicode="" d="M208 160c45 0 83-26 102-64H106c19 38 57 64 102 64zm0 240c114 0 208-94 208-208S323-16 208-16 0 78 0 192s93 208 208 208zm0-374c92 0 166 74 166 166s-74 166-166 166S42 284 42 192 116 26 208 26zm73 187c-18 0-31 13-31 31s13 31 31 31 31-13 31-31-13-31-31-31zm-146 0c-18 0-31 13-31 31s13 31 31 31 31-13 31-31-13-31-31-31z"/><glyph glyph-name="ion-ios-tennisball" unicode="" d="M202-16C92-13 3 77 0 187c8 1 15 1 23 1 48 0 94-18 128-52s53-80 53-128c0-8-1-16-2-24zm-20 390c0-115 92-207 207-207 9 0 18 0 26 1C404 72 326-5 229-15c1 8 1 15 1 23 0 115-92 207-207 207-7 0-15 0-22-1 10 96 87 172 182 184-1-8-1-16-1-24zm79-128c-34 34-53 80-53 128 0 9 1 18 2 26 112-2 204-93 206-205-9-1-18-2-27-2-48 0-94 19-128 53zm-77 153z"/><glyph glyph-name="ion-ios-card" unicode="" horiz-adv-x="448" d="M448 320v-48H0v48c0 18 14 32 32 32h384c18 0 32-14 32-32zM0 64v160h448V64c0-18-14-32-32-32H32C14 32 0 46 0 64zm142 48c-8 0-14-6-14-14s6-14 14-14h164c8 0 14 6 14 14s-6 14-14 14H142zm-72 0c-8 0-14-6-14-14s6-14 14-14h12c8 0 14 6 14 14s-6 14-14 14H70z"/><glyph glyph-name="ion-md-create" unicode="" horiz-adv-x="384" d="M0 80l236 236 80-80L80 0H0v80zm378 218l-40-40-80 80 40 40c9 9 20 9 29 0l51-51c9-9 9-20 0-29z"/><glyph glyph-name="ion-logo-vk" unicode="" horiz-adv-x="448" d="M395 149c41-38 53-58 53-70 0-6-3-9-6-11-5-4-22-4-34-4h-28c-9 0-18-1-26 2-6 2-12 5-18 9-12 9-21 21-31 32-5 6-10 11-17 15-8 4-14 2-19-4-6-6-7-18-7-26s1-18-6-24c-2-1-4-2-6-2-4-1-17-2-33-2s-68 8-105 49c-36 39-62 79-82 120-11 23-30 55-30 66 0 5 5 9 10 9h66c9 0 15-4 19-11s10-26 23-52c13-25 25-45 41-50 2 0 8-1 10 3 4 7 5 18 6 25 4 29 3 46-5 67-2 5-7 7-11 9-7 3-13 2-11 5 4 5 12 10 19 12s21 4 40 4 40-1 48-7c1-1 4-4 5-6 5-11 2-29 1-55-1-46 3-51 5-54s5-3 6-3c2 0 4 0 6 1 8 4 26 26 40 52 13 25 18 36 21 44s8 16 14 16h74c16 0 20-3 20-14 0-17-18-39-32-58-34-45-40-53-40-59 0-3 0-5 1-8 3-8 10-12 19-20z"/><glyph glyph-name="ion-ios-wifi" unicode="" horiz-adv-x="448" d="M224 352c82 0 163-33 222-88 3-3 3-9 0-12l-27-28c-3-3-8-3-11 0-23 22-51 39-80 51-33 14-68 21-104 21s-71-7-104-21c-29-12-56-29-79-51-3-3-9-3-12 0L2 252c-3 3-2 9 1 12 58 55 139 88 221 88zM81 170c-3 3-3 9 0 12 38 34 88 55 143 55s104-21 142-55c4-3 4-9 1-12l-29-28c-3-3-8-3-11 0-28 25-65 39-103 39s-75-14-103-39c-3-3-8-3-11 0zm143-46c23 0 44-10 59-26 3-3 3-8 0-11l-53-53c-3-3-9-3-12 0l-53 53c-3 3-3 8 0 11 15 16 36 26 59 26z"/><glyph glyph-name="ion-logo-vimeo" unicode="" horiz-adv-x="448" d="M445 334c7-33 1-66-13-97s-31-59-51-87c-26-36-52-71-85-101-19-18-41-35-66-44-31-11-52-5-71 22-14 19-22 40-28 63-12 45-25 90-38 134-4 12-9 22-15 33-3 5-8 10-12 14-5 4-11 3-17 0-10-6-28-18-28-18L0 280c26 24 82 71 82 71 11 9 33 25 48 27 21 3 38-4 50-22 11-17 15-37 18-57 7-41 11-82 23-122 3-10 8-20 13-29 7-11 15-13 25-5 4 3 7 6 10 10 20 24 37 52 48 81 3 9 3 17 3 27 0 13-10 25-25 26s-24-1-39-7c6 24 24 62 54 84 29 21 71 24 94 16s36-23 41-46z"/><glyph glyph-name="ion-ios-checkmark-circle-outline" unicode="" d="M315 255c2-2 1-4 0-6L181 115c-2-2-7-5-12-5-4 0-7 1-11 5l-56 56c-2 2-2 4 0 6l17 18c1 1 2 1 3 1s2 0 3-1l44-45 122 123c1 1 2 1 3 1s2 0 3-1zM208 372c-48 0-93-19-127-53s-53-79-53-127S47 99 81 65s79-53 127-53 93 19 127 53 53 79 53 127-19 93-53 127-79 53-127 53zm0 28c115 0 208-93 208-208S323-16 208-16 0 77 0 192s93 208 208 208z"/><glyph glyph-name="ion-md-battery-full" unicode="" horiz-adv-x="224" d="M194 371c16 0 30-14 30-30V-2c0-16-13-30-30-30H30C14-32 0-19 0-2v343c0 16 14 30 30 30h37v45h90v-45h37z"/><glyph glyph-name="ion-md-color-wand" unicode="" horiz-adv-x="384" d="M137 291L384 37 348 0 100 253zm-20 25v68h37v-68h-37zm0-198v68h37v-68h-37zm89 117v37h69v-37h-69zm36 97l-48-48-25 26 47 48zm-137-22l-26-26-47 48 26 26zM32 170l47 48 26-26-47-48zM0 235v37h65v-37H0z"/><glyph glyph-name="ion-md-analytics" unicode="" horiz-adv-x="448" d="M347 270c4-1 9-2 13-2 11 0 22 4 30 10l58-39V27c0-24-19-43-43-43H43C19-16 0 3 0 27v57l61 57c7-4 15-6 24-6 13 0 24 5 33 13l58-33c0-3-1-6-1-9 0-26 22-48 48-48s48 22 48 48c0 12-4 22-11 30zM85 231c-26 0-48-22-48-48 0-6 1-12 3-17L0 128v229c0 24 19 43 43 43h362c24 0 43-19 43-43v-80l-41 28c1 4 1 7 1 11 0 26-22 48-48 48s-48-22-48-48c0-10 3-20 9-28l-87-135c-3 1-7 1-11 1-12 0-22-4-30-11l-60 34v6c0 26-22 48-48 48z"/><glyph glyph-name="ion-ios-compass" unicode="" d="M232 168c1-1 1-3 0-4l-98-49c-2-1-4 1-3 3l49 98c1 1 3 1 4 0zm-24 232c115 0 208-93 208-208S323-16 208-16 0 77 0 192s93 208 208 208zm41-249l81 160c1 2-1 4-3 3l-159-81h-1L86 73c-1-2 1-4 3-3z"/><glyph glyph-name="ion-logo-dribbble" unicode="" horiz-adv-x="384" d="M192 384c106 0 192-86 192-192S298 0 192 0 0 86 0 192s86 192 192 192zm122-88c-17-25-47-47-85-64 5-10 9-20 13-31 33 3 75 4 110 2-2 35-16 68-38 93zm-122 56c-14 0-26-2-39-5 23-23 43-53 62-87 34 14 62 33 79 55-28 23-63 37-102 37zm-72-18c-41-21-71-58-83-103h25c44 0 85 6 121 17-19 34-40 63-63 86zM32 200v-8c0-40 15-78 40-106 24 45 67 83 122 106 4 2 8 3 14 4-3 8-6 16-10 24-40-13-88-20-138-21-9 0-19 1-28 1zM192 32c20 0 39 3 57 10-3 25-8 53-15 79-4 17-10 33-16 49-7-2-13-4-17-6-48-22-86-56-107-98 27-21 61-34 98-34zm86 26c40 26 68 67 73 116-30 2-68 3-99 0 4-12 9-25 12-38 7-27 11-52 14-78z"/><glyph glyph-name="ion-ios-fitness" unicode="" horiz-adv-x="448" d="M320 168H128c-4 0-8 4-8 8v32c0 4 4 8 8 8h192c4 0 8-4 8-8v-32c0-4-4-8-8-8zm26-82v212c0 12 10 22 22 22s22-10 22-22V86c0-12-10-22-22-22s-22 10-22 22zm82 170c11 0 20-9 20-20v-88c0-11-9-20-20-20h-12c-4 0-8 4-8 8v112c0 4 4 8 8 8h12zM102 86c0-12-10-22-22-22S58 74 58 86v212c0 12 10 22 22 22s22-10 22-22V86zM32 256c4 0 8-4 8-8V136c0-4-4-8-8-8H20c-11 0-20 9-20 20v88c0 11 9 20 20 20h12z"/><glyph glyph-name="ion-ios-aperture" unicode="" d="M202 77h179c-25-37-61-66-103-81l-22 22-55 55c-1 1-1 4 1 4zm-83 36c0 2 2 3 3 2L249-12c-13-3-27-4-41-4-32 0-62 7-89 20v109zm89 287c32 0 63-7 90-20V271c0-2-3-3-4-2L168 396c13 3 26 4 40 4zM20 281h110c2 0 2-2 1-3L4 151c-3 13-4 27-4 41 0 32 7 62 20 89zm119 107l77-77c1-1 1-4-1-4H35c25 37 61 66 104 81zm-20-161c0 1 0 2 1 3l50 50c1 1 2 1 3 1h71c1 0 1 0 2-1l50-50c1-1 2-2 2-3v-70c0-1-1-2-2-3l-50-50c-1-1-1-1-2-1h-71c-1 0-2 0-3 1l-50 50c-1 1-1 2-1 3v70zm293 5c3-13 4-26 4-40 0-32-7-62-20-89H287c-2 0-2 2-1 3zm-88 133c37-25 65-61 80-104l-77-77c-1-1-3 0-3 2v179zM12 122l78 78c1 1 3 0 3-2V19C56 44 27 79 12 122z"/><glyph glyph-name="ion-md-document" unicode="" horiz-adv-x="320" d="M192 400l128-128V24c0-22-18-40-40-40H40C18-16 0 2 0 24v336c0 22 18 40 40 40h152zm-16-144h112L176 368V256z"/><glyph glyph-name="ion-ios-bicycle" unicode="" horiz-adv-x="448" d="M93 159c-17 0-34-8-46-20s-19-29-19-46 7-34 19-46 29-19 46-19 34 7 46 19 20 29 20 46-8 35-20 47-29 19-46 19zm0 28c51 0 94-43 94-94S144 0 93 0 0 42 0 93s42 94 93 94zm195 133c-18 0-32 14-32 32s14 32 32 32 32-14 32-32-14-32-32-32zm67-161c-17 0-34-8-46-20s-20-29-20-46 8-34 20-46 29-19 46-19 34 7 46 19 19 29 19 46-7 35-19 47-29 19-46 19zm0 28c51 0 93-43 93-94S406 0 355 0s-94 42-94 93 43 94 94 94zm-19 69c9 0 16-7 16-16s-7-16-16-16h-57s-19 24-38 52l-49-52c18-14 48-25 48-38V96c0-9-7-16-16-16s-16 7-16 16v66s-16 16-62 42c-6 4-18 10-18 27 0 8 3 17 9 23l72 69c6 6 14 9 22 9 11 0 21-7 27-16l30-60h48z"/><glyph glyph-name="ion-ios-clipboard" unicode="" horiz-adv-x="352" d="M60 288c0 9 7 16 16 16h200c9 0 16-7 16-16V48c0-9-7-16-16-16H76c-9 0-16 7-16 16v240zm182 79c8 0 14-7 14-15v-18c0-1-1-2-2-2H98c-1 0-2 1-2 2v16c0 10 8 17 18 17h14c0 6 1 11 3 16 2 6 6 11 10 16 9 10 21 17 35 17s27-7 36-17c4-5 8-10 10-16 2-5 2-10 2-16h18zm-63-15c7 1 12 6 13 13 1 10-8 19-18 18-7-1-12-7-13-14-1-10 8-18 18-17zm141 48c18 0 32-14 32-32V0c0-17-15-32-32-32H32C14-32 0-18 0 24v344c0 18 14 32 32 32h76c2 0 3-2 2-3-3-4-6-9-8-16 0-1 0-1-1-1h-1c-22 0-27-18-27-37v-9c0-1-1-2-2-2H49c-9 0-16-7-16-16V19c0-9 7-16 16-16h253c9 0 16 7 16 16v297c0 9-7 16-16 16h-20c-1 0-2 1-2 2v15c-1 19-8 34-27 34h-1c-1 0-2 0-2 1-2 5-4 9-7 13-1 1 0 3 2 3h75z"/><glyph glyph-name="ion-ios-arrow-dropright-circle" unicode="" d="M0 192c0 115 93 208 208 208s208-93 208-208S323-16 208-16 0 77 0 192zm244 0l-79-81c-8-8-8-19 0-27 4-4 8-6 13-6s10 2 14 6l94 94c7 8 6 20-1 27l-95 95c-8 8-19 8-27 0s-8-19 0-27z"/><glyph glyph-name="ion-md-mail-unread" unicode="" horiz-adv-x="464" d="M336 320c0 35 29 64 64 64s64-29 64-64-29-64-64-64-64 29-64 64zm15-75c14-9 31-15 49-15s34 5 48 14V59c0-24-19-43-43-43H43C19 16 0 35 0 59v266c0 24 19 43 43 43h281c-9-14-14-30-14-48s5-36 15-50l-101-67L48 320v-43l176-117z"/><glyph glyph-name="ion-md-shirt" unicode="" horiz-adv-x="384" d="M256 384l128-32v-96l-77 16L320 0H64l13 272-77-16v96l128 32c11-19 40-32 64-32s53 13 64 32z"/><glyph glyph-name="ion-ios-finger-print" unicode="" d="M403 266c8-24 13-50 13-73v-11c0-7-7-13-14-13-4 0-8 1-10 4s-4 6-4 10c0 2 1 7 1 10 0 20-5 42-12 63s-17 38-27 48c-5 5-5 15 0 20 3 3 6 4 10 4s7-1 10-4c13-13 24-34 33-58zM95 337c-4 0-9 2-11 6-2 3-3 6-2 10s2 7 5 9c35 25 76 38 121 38 47 0 92-17 131-49 6-5 7-13 2-19-3-3-7-5-11-5-3 0-6 1-8 3-34 28-73 43-114 43-39 0-75-12-105-33-2-2-5-3-8-3zM27 193c0-30 6-53 15-82 1-4 1-8-1-11s-5-5-9-6c-1 0-3-1-4-1-6 0-11 4-13 10-10 31-15 57-15 90 0 50 18 99 51 137 3 3 7 4 11 4 3 0 6-1 8-3 3-2 5-5 5-9s-1-7-3-10c-29-33-45-75-45-119zm281 125c26-23 46-55 57-94 12-43 16-96 10-155-1-7-7-12-14-12h-1c-8 1-13 7-12 15 5 55 2 106-9 145-10 34-27 62-49 81s-50 29-79 29c-40 0-76-14-101-41-23-25-36-59-33-95 2-31 6-48 9-63 5-23 9-42 6-92 0-7-7-13-14-13-1 0-3 1-4 1-6 2-10 7-10 14 3 46-1 64-5 85-3 16-7 33-9 66-3 43 11 84 40 115 30 32 73 50 121 50 36 0 70-12 97-36zm18-138c5-31 7-56 7-77 0-42-5-76-5-77-1-7-7-12-14-12h-2c-4 1-7 3-9 6s-3 6-2 10c0 0 4 33 4 73 0 20-2 43-7 73-5 31-16 57-32 75-16 17-36 26-58 26-15 0-29-3-42-9-2-1-4-1-6-1-4 0-8 2-11 5s-4 8-3 12 4 7 8 9c16 8 35 12 54 12 30 0 56-12 77-34s35-53 41-91zm-189 64c-11-16-14-35-10-59 9-54 18-116 10-174-1-7-7-12-14-12h-1c-4 0-7 2-9 5s-3 7-3 11c8 54-1 114-10 165-5 31 0 58 15 80 3 4 7 6 11 6 3 0 7-1 9-3 5-5 6-13 2-19zM270 60c7 0 13-5 13-13 0-1 1-21-3-41-1-6-6-11-13-11h-5c-6 2-10 9-9 16 3 17 3 35 3 35 0 8 5 14 13 14h1zm-23 182c11-10 19-26 24-44 8-28 11-67 12-114 0-4-2-7-4-10-3-3-5-4-9-4-8 0-14 7-14 14-1 45-5 82-12 108-3 12-13 39-38 39-11 0-20-4-26-11-6-8-9-21-6-37 13-65 16-127 9-184-1-7-7-12-14-12h-1c-7 1-13 7-12 15 7 54 4 114-8 176-6 31 2 50 10 60 11 13 28 20 48 20 15 0 30-6 41-16zm-30-40c8-19 14-51 16-90 3-39 2-80-2-116-1-7-6-12-13-12h-2c-4 0-7 2-9 5s-3 6-3 10c4 33 4 73 2 110s-7 67-14 83c-3 7 0 15 7 18 2 1 3 1 5 1 6 0 11-4 13-9z"/><glyph glyph-name="ion-logo-buffer" unicode="" horiz-adv-x="384" d="M7 284c-9 4-9 11 0 15l169 82c4 2 10 3 16 3s12-1 16-3l169-82c9-4 9-11 0-15l-169-82c-4-2-10-3-16-3s-12 1-16 3zm370-84c9-4 9-12 0-16l-169-81c-4-2-10-4-16-4s-12 2-16 4L7 184c-9 4-9 12 0 16 0 0 27 13 33 16 5 3 7 3 13 0s123-60 123-60c4-2 10-3 16-3s12 1 16 3c0 0 121 59 125 61s5 2 9 0 35-17 35-17zm0-100c9-4 9-11 0-15L208 3c-4-2-10-3-16-3s-12 1-16 3L7 85c-9 4-9 11 0 15 0 0 27 14 33 17 5 3 7 2 13-1s123-59 123-59c4-2 10-3 16-3s12 1 16 3c0 0 121 58 125 60s5 2 9 0 35-17 35-17z"/><glyph glyph-name="ion-ios-arrow-forward" unicode="" horiz-adv-x="192" d="M134 192L7 319c-9 9-9 25 0 34s25 9 34 0l144-144c9-9 10-24 1-33L41 31c-5-5-11-7-17-7s-12 2-17 7c-9 9-9 25 0 34z"/><glyph glyph-name="ion-md-construct" unicode="" horiz-adv-x="480" d="M415 55c7-5 7-18-2-25l-41-41c-7-7-17-7-24 0L234 102 138-10c-8-8-19-8-27 0L68 33c-10 8-10 21-2 27l105 105-14 15c-41-16-89-8-123 26-35 35-44 88-23 130l78-75 53 53-76 75c42 19 96 12 131-23 34-34 43-80 27-121l13-13 58-58zm63 176c2-2 2-5 0-7l-55-56c-2-2-6-2-8 0l-35 34c-2 2-2 6 0 8l10 10-14 13c-6 4-17 4-30 0l-31-37-57 57 29 28s-1 47-17 60-45 29-45 29v30c30 0 55-7 91-25s63-45 70-52 17-18 23-27 5-18 5-18l18-16 4 4c2 2 6 2 8 0z"/><glyph glyph-name="ion-ios-restaurant" unicode="" horiz-adv-x="288" d="M272 384c5 0 16 0 16-11V16c0-9-7-16-16-16s-16 7-16 16v128s-32 23-32 80c0 83 23 160 48 160zm-96 0h8s24-107 24-128-13-38-32-45V16c0-9-7-16-16-16s-16 7-16 16v195c-19 7-32 24-32 45s24 128 24 128h8l-10-104c0-4 4-8 8-8s8 4 8 8l6 104h8l6-104c0-4 4-8 8-8s8 4 8 8zm-128 0c26 0 48-64 48-128 0-21-13-38-32-45V16c0-9-7-16-16-16S32 7 32 16v195c-19 7-32 24-32 45 0 64 22 128 48 128z"/><glyph glyph-name="ion-md-repeat" unicode="" horiz-adv-x="384" d="M85 296v-83H43v125h256v62l85-83-85-83v62H85zM299 88v83h42V46H85v-62L0 67l85 83V88h214z"/><glyph glyph-name="ion-ios-reverse-camera" unicode="" horiz-adv-x="384" d="M354 288c18 0 30-13 30-31V81c0-18-12-33-30-33H34C16 48 0 63 0 81v176c0 18 16 31 34 31h7v8c0 4 4 8 8 8h26c4 0 8-4 8-8v-8h4c4 0 9 2 12 5 28 32 40 43 52 43h85c12 0 23-11 51-43 3-3 7-5 12-5h55zM244 108c1 4 1 8-2 11-2 2-5 4-8 4-2 0-5-2-7-3-11-8-23-11-35-11-15 0-30 5-42 16-10 9-16 21-19 34h20c1 0 1 1 2 1 3 2 4 5 2 8l-32 42c-1 1-3 2-5 2s-3-1-4-2l-31-42s-1-1-1-2c0-4 3-6 6-6h20c3-19 12-37 27-51 16-15 36-22 57-22 17 0 34 4 48 14 2 2 3 5 4 7zm57 67c2 3 1 7-2 9h-23c-3 20-13 40-26 52-16 14-36 23-58 23-17 0-34-5-48-15-2-1-3-4-4-6-1-4-1-9 2-12 2-2 5-3 8-3 2 0 5 1 7 2 11 7 23 11 35 11 15 0 29-5 41-16 10-10 17-22 20-36h-23c-3-2-4-6-2-9l33-43v-1c3-2 7-1 9 1z"/><glyph glyph-name="ion-md-move" unicode="" horiz-adv-x="448" d="M448 192l-96-96v64h-96V64h64l-96-96-96 96h64v96H96V96L0 192l96 96v-64h96v96h-64l96 96 96-96h-64v-96h96v64z"/><glyph glyph-name="ion-ios-book" unicode="" d="M98 384c54 0 100-28 100-82V2c0-2-3-3-4-1-10 34-38 68-82 71-34 2-67-13-93-37-2-2-5-3-7-3H8c-4 0-8 3-8 6v290c0 32 44 56 98 56zm220 0c54 0 98-24 98-56V38c0-3-4-6-8-6h-4c-2 0-5 2-7 3-29 26-60 39-93 37-43-3-72-36-82-70V1c-1-2-4-1-4 1v300c0 54 46 82 100 82z"/><glyph glyph-name="ion-ios-cloud-outline" unicode="" horiz-adv-x="512" d="M288 324c-40 0-77-20-100-53l-7-9c-4-5-10-7-16-5l-11 4c-5 2-10 4-16 4-11 0-22-5-30-14s-14-20-14-32v-11c0-6-4-10-9-12l-10-4c-14-4-25-13-34-25-8-12-13-27-13-41 0-17 7-33 19-46s28-20 44-20h330c16 0 32 7 44 20s19 29 19 46c0 15-5 30-15 42s-23 21-37 23l-11 2c-6 1-10 5-11 11l-1 11c-3 30-17 57-39 77s-52 32-82 32zm0 28c77 0 141-59 149-134 43-8 75-47 75-92 0-50-41-94-91-94H91C41 32 0 76 0 126c0 41 26 80 66 93 1 39 33 74 72 74 10 0 19-3 27-6 27 39 72 65 123 65z"/><glyph glyph-name="ion-ios-arrow-dropdown-circle" unicode="" d="M0 192c0 115 93 208 208 208s208-93 208-208S323-16 208-16 0 77 0 192zm289 43l-81-79-81 81c-8 8-19 8-27 0s-8-19 0-27l95-95c7-7 19-8 27-1l94 94c4 4 6 9 6 14s-2 9-6 13c-8 8-19 8-27 0z"/><glyph glyph-name="ion-md-pin" unicode="" horiz-adv-x="320" d="M160 416c88 0 160-71 160-157 0-118-160-291-160-291S0 141 0 259c0 86 72 157 160 157zm0-213c32 0 57 25 57 56s-25 56-57 56-57-25-57-56 25-56 57-56z"/><glyph glyph-name="ion-ios-list-box" unicode="" d="M0 365c0 19 16 35 35 35h346c19 0 35-16 35-35V19c0-19-16-35-35-35H35C16-16 0 0 0 19v346zM89 68c9 1 16 8 17 17 2 13-9 25-22 23-9-1-16-8-17-17-2-13 9-25 22-23zm0 104c9 1 16 8 17 17 2 13-9 25-22 23-9-1-16-8-17-17-2-13 9-25 22-23zm0 104c9 1 16 8 17 17 2 13-9 25-22 23-9-1-16-8-17-17-2-13 9-25 22-23zM337 74c8 0 14 6 14 14s-6 14-14 14H157c-8 0-14-6-14-14s6-14 14-14h180zm0 104c8 0 14 6 14 14s-6 14-14 14H157c-8 0-14-6-14-14s6-14 14-14h180zm0 104c8 0 14 6 14 14s-6 14-14 14H157c-8 0-14-6-14-14s6-14 14-14h180z"/><glyph glyph-name="ion-ios-disc" unicode="" d="M208 282c50 0 90-40 90-90s-40-90-90-90-90 40-90 90 40 90 90 90zm0-130c22 0 40 18 40 40s-18 40-40 40-40-18-40-40 18-40 40-40zm0 248c115 0 208-93 208-208S323-16 208-16 0 77 0 192s93 208 208 208zm0-322c63 0 114 51 114 114s-51 114-114 114S94 255 94 192 145 78 208 78z"/><glyph glyph-name="ion-ios-cube" unicode="" d="M393 318c6-3 6-11 0-14l-179-94c-4-2-8-2-12 0L23 304c-6 3-6 11 0 14l179 81c4 2 8 2 12 0zM232-15c-5-3-11 1-11 7v187c0 3 1 6 4 7l180 93c5 3 11-1 11-7V87c0-3-2-6-4-7zM0 272c0 6 6 10 11 7l180-93c3-1 4-4 4-7V-8c0-6-6-10-11-7L4 80c-2 1-4 4-4 7v185z"/><glyph glyph-name="ion-md-thunderstorm" unicode="" horiz-adv-x="448" d="M361 287c48-3 87-44 87-93 0-52-41-82-93-82h-94l18 36h-33l33 67h-99V112h-68C50 112 0 150 0 212c0 55 38 100 91 111 6 1 15 2 21 2 50 0 91-31 106-75h33c-6 24-19 47-37 65-25 25-57 37-91 40 25 31 61 45 101 45 68 0 124-48 137-113zM180 80v32h81L202-16v96h-22z"/><glyph glyph-name="ion-md-male" unicode="" d="M368 400h48V224h-48v94L261 211c17-24 27-52 27-83 0-80-64-144-144-144S0 48 0 128s64 144 144 144c31 0 59-10 83-27l107 107h-94v48h128zM144 32c53 0 96 43 96 96s-43 96-96 96-96-43-96-96 43-96 96-96z"/><glyph glyph-name="ion-ios-color-wand" unicode="" horiz-adv-x="384" d="M382 42c3-3 3-8 0-11L353 2c-3-3-8-3-11 0L97 248c-3 3-3 8 0 11l29 29c3 3 8 3 11 0zm-26-14c3 3 3 8 0 11L166 230c-3 3-8 3-11 0s-3-9 0-12L345 28c3-3 8-3 11 0zM129 328c-7 0-12 5-12 12v32c0 7 5 12 12 12s12-5 12-12v-32c0-7-5-12-12-12zm0-143c7 0 12-5 12-12v-32c0-7-5-12-12-12s-12 5-12 12v32c0 7 5 12 12 12zm78 73c0 7 5 12 12 12h32c7 0 12-5 12-12s-5-12-12-12h-32c-7 0-12 5-12 12zm-151 0c0-7-6-12-12-12H12c-7 0-12 5-12 12s5 12 12 12h32c7 0 12-5 12-12zm5 49l-21 21c-5 5-5 12 0 17 2 2 5 3 8 3s7-1 9-3l21-21c5-5 5-12 0-17-2-2-6-3-9-3s-6 1-8 3zm8-99c3 0 7-1 9-3 5-5 5-12 0-17l-21-21c-2-2-6-4-9-4s-6 2-8 4-4 5-4 8 2 7 4 9l21 21c2 2 5 3 8 3zm119 96c-3 0-6 1-8 3s-4 6-4 9 2 6 4 8l21 21c2 2 5 3 8 3s7-1 9-3c5-5 5-12 0-17l-21-21c-2-2-6-3-9-3z"/><glyph glyph-name="ion-ios-pie" unicode="" horiz-adv-x="448" d="M244 380c0 2 2 4 4 4 111-4 200-96 200-208 0-114-92-207-207-208C153-33 77 22 46 99c-1 2 1 5 3 6l189 48c4 1 6 4 6 8v219zM0 209c0 90 59 205 216 207 2 0 4-2 4-4V183c0-4-2-7-6-8L20 125c-2 0-4 1-5 3-15 32-15 81-15 81z"/><glyph glyph-name="ion-md-person" unicode="" horiz-adv-x="384" d="M192 192c-53 0-96 43-96 96s43 96 96 96 96-43 96-96-43-96-96-96zm0-48c64 0 192-32 192-96V0H0v48c0 64 128 96 192 96z"/><glyph glyph-name="ion-md-alert" unicode="" d="M208 400c114 0 208-94 208-208S322-16 208-16 0 78 0 192s94 208 208 208zm24-312v40h-48V88h48zm0 88v128h-48V176h48z"/><glyph glyph-name="ion-md-tennisball" unicode="" d="M336 356c-42-45-64-103-64-164s23-119 65-163c-36-28-81-45-129-45S115 1 80 29c42 44 64 102 64 163s-22 119-64 164c35 28 80 44 128 44s93-16 128-44zm-31-163c0 27 5 53 15 78 9 23 23 44 40 62 35-37 56-87 56-141S395 89 361 52c-18 19-31 39-41 63-10 25-15 51-15 78zm-194 0c0-27-5-53-15-78-10-24-23-45-41-64C21 88 0 138 0 192c0 55 21 105 56 142 17-18 31-40 40-63 10-25 15-51 15-78z"/><glyph glyph-name="ion-logo-closed-captioning" unicode="" horiz-adv-x="448" d="M0 352h448V32H0v320zm406-160c0 23 0 38-3 70s-20 50-52 53-86 3-127 3-95 0-127-3-49-21-52-53-3-47-3-70 1-41 3-70 17-50 52-53 84-3 127-3 92 0 127 3 50 24 52 53 3 47 3 70zm-80-24c0 1-1 3-1 3h46c0-24-5-42-16-54s-29-19-54-19c-12 0-22 2-31 5s-15 8-21 15-10 16-13 28-5 28-5 46 2 33 6 45 8 22 15 29 15 12 24 15 19 5 30 5c22 0 38-7 49-19s17-32 17-54h-46v1c0 18-11 29-24 29-14 0-22-9-24-26 0 0-1-10-1-26s1-24 1-24c1-15 10-26 24-26s24 10 24 26v1zm-155 0c0 1-1 3-1 3h46c0-24-5-42-16-54s-29-19-54-19c-12 0-21 2-30 5s-16 8-22 15-10 16-13 28-5 28-5 46 2 33 6 45 8 22 15 29 15 12 24 15 19 5 30 5c22 0 38-7 49-19s17-32 17-54h-45v1c0 18-11 29-24 29-14 0-23-9-25-26 0 0-1-10-1-26s1-24 1-24c1-15 10-26 24-26s24 10 24 26v1z"/><glyph glyph-name="ion-ios-qr-scanner" unicode="" d="M126 384c8 0 14-6 14-14s-6-14-14-14H66c-9 0-18-4-26-12-7-8-12-17-12-26v-60c0-8-6-14-14-14s-14 6-14 14v59c0 37 30 67 67 67h59zm224 0c36 0 66-30 66-66v-60c0-8-6-14-14-14s-14 6-14 14v60c0 9-5 18-12 26-8 8-17 12-26 12h-60c-8 0-14 6-14 14s6 14 14 14h60zM126 28c8 0 14-6 14-14s-6-14-14-14H66C30 0 0 30 0 66v60c0 8 6 14 14 14s14-6 14-14V66c0-9 5-18 12-26 8-8 17-12 26-12h60zm276 112c8 0 14-6 14-14V67c0-37-30-67-67-67h-59c-8 0-14 6-14 14s6 14 14 14h60c9 0 18 4 26 12 7 8 12 17 12 26v60c0 8 6 14 14 14z"/><glyph glyph-name="ion-md-flashlight" unicode="" horiz-adv-x="352" d="M48 150l1 122h255V150l-64-64V-32H112V86zm107 266h42v-64h-42v64zM0 338l30 30 45-46-30-30zm277-16l45 46 30-30-45-46z"/><glyph glyph-name="ion-ios-code" unicode="" horiz-adv-x="384" d="M268 305l114-109c1-1 2-2 2-4s-1-3-2-4L268 79c-1-1-2-2-4-2s-3 1-4 2l-14 13c-1 1-2 2-2 4s1 3 2 4l96 92-96 92c-1 1-2 2-2 4s1 3 2 4l14 13c1 1 3 2 4 2s3-1 4-2zm-128-17c0-2-1-3-2-4l-96-92 96-92c1-1 2-2 2-4s-1-3-2-4l-14-13c-1-1-2-2-4-2-1 0-3 1-4 2L2 188c-1 1-2 2-2 4s1 3 2 4l114 109c1 1 3 2 4 2s3-1 4-2l14-13c1-1 2-2 2-4z"/><glyph glyph-name="ion-md-bowtie" unicode="" horiz-adv-x="448" d="M244 144h-40c-15 0-28 13-28 28v40c0 15 13 28 28 28h40c15 0 28-13 28-28v-40c0-15-13-28-28-28zm-100 24c0-18 8-35 22-45-6-27-102-91-134-91C14 32 0 46 0 64v256c0 18 14 32 32 32 32 0 128-64 134-91-14-10-22-27-22-45v-48zm272 184c18 0 32-14 32-32V64c0-18-14-32-32-32-32 0-128 64-134 91 14 10 22 27 22 45v48c0 18-8 35-22 45 6 27 102 91 134 91z"/><glyph glyph-name="ion-md-infinite" unicode="" d="M387 260c19-18 29-42 29-68s-11-50-30-68-43-28-70-28c-26 0-51 10-70 28l-38 36-38-36c-19-18-43-28-70-28s-52 10-71 28-29 42-29 68 10 50 29 68 44 28 71 28c26 0 51-10 70-28l108-104c10-10 24-15 38-15s28 5 38 15 15 22 15 36-5 26-15 36-24 15-38 15-28-5-38-15l-17-16-33 32 18 16c19 18 43 28 70 28s52-10 71-28zM138 156l37 36-37 36c-10 10-24 15-38 15s-28-5-38-15-15-22-15-36 5-26 15-36 24-15 38-15 28 5 38 15z"/><glyph glyph-name="ion-md-volume-off" unicode="" horiz-adv-x="384" d="M342 192c0 69-45 128-107 147v45c85-20 149-99 149-192 0-35-8-68-24-96l-32 32c9 19 14 41 14 64zM192 368V264l-51 51zM357 51l24-24-24-24-40 40c-23-21-51-36-82-43v45c19 6 37 15 52 28l-95 95V16L85 128H0v128h85l9 10-91 91 24 24zm-69 141c0-7 0-15-2-22l-51 51v60c32-16 53-51 53-89z"/><glyph glyph-name="ion-ios-flag" unicode="" horiz-adv-x="320" d="M311 367c5 1 9-3 9-8V168c0-4-3-7-7-8 0 0-37-7-72-7s-57 6-83 12-51 15-77 15c-21 0-37-2-47-4-4-1-6-4-6-8V14c0-8-8-15-16-14C5 1 0 7 0 14v354l4 3c2 1 21 13 77 13 28 0 55-5 81-11 25-5 50-12 78-12 18 0 48 3 61 5 4 0 7 1 10 1z"/><glyph glyph-name="ion-md-cloud-download" unicode="" horiz-adv-x="480" d="M387 231c52-3 93-46 93-99 0-55-45-100-100-100H120C54 32 0 86 0 152c0 62 47 113 107 119 25 48 75 81 133 81 73 0 133-52 147-121zm-179-51h-68L240 80l100 100h-68v76h-64v-76z"/><glyph glyph-name="ion-md-git-compare" unicode="" horiz-adv-x="448" d="M160 66v62l96-96-96-96V0h-22C99 0 74 11 54 36c-18 23-22 48-22 94v167c-19 11-32 31-32 55 0 35 29 64 64 64s64-29 64-64c0-24-13-44-32-55V130c0-35 2-47 8-54 5-6 9-10 34-10h22zM64 392c-22 0-40-18-40-40s18-40 40-40 40 18 40 40-18 40-40 40zM416 87c19-11 32-31 32-55 0-35-29-64-64-64s-64 29-64 64c0 24 13 44 32 55v170c0 35-2 47-8 54-5 6-9 9-34 9h-22v-64l-96 96 96 96v-62h22c39 0 64-10 84-35 18-23 22-48 22-94V87zM384-8c22 0 40 18 40 40s-18 40-40 40-40-18-40-40 18-40 40-40z"/><glyph glyph-name="ion-ios-mic" unicode="" horiz-adv-x="220" d="M110 112c-35 0-64 29-64 64v160c0 35 29 64 64 64s64-29 64-64V176c0-35-29-64-64-64zm96 144c8 0 14-6 14-14v-69c0-56-42-102-96-109V12h36c8 0 14-6 14-14s-6-14-14-14H60c-8 0-14 6-14 14s6 14 14 14h36v52C42 71 0 117 0 173v69c0 8 6 14 14 14s14-6 14-14v-69c0-45 37-82 82-82s82 37 82 82v69c0 8 6 14 14 14z"/><glyph glyph-name="ion-md-transgender" unicode="" horiz-adv-x="448" d="M320 416h128V288h-35v69l-88-88c7-15 11-31 11-49 0-55-40-100-91-110V64h63V24h-63v-56h-42v56h-63v40h63v46c-52 10-91 55-91 110 0 18 4 34 11 49l-19 19-31-31-29 29 31 31-40 40v-69H0v128h128v-35H65l37-37 32 32 28-29-31-31 15-15c20 19 48 31 78 31 24 0 46-7 64-20 0 0 6-5 14-12l81 81h-63v35zm-96-258c35 0 64 29 64 64s-29 64-64 64-64-29-64-64 29-64 64-64z"/><glyph glyph-name="ion-md-headset" unicode="" horiz-adv-x="384" d="M192 400c106 0 192-88 192-197V50c0-36-29-66-64-66h-64v176h85v43c0 85-67 153-149 153S43 288 43 203v-43h85V-16H64C29-16 0 14 0 50v153c0 109 86 197 192 197z"/><glyph glyph-name="ion-md-arrow-down" unicode="" horiz-adv-x="342" d="M192 363V103l120 120 30-31L171 21 0 192l30 30 120-119v260h42z"/><glyph glyph-name="ion-ios-partly-sunny" unicode="" horiz-adv-x="480" d="M152 384c9 0 16-7 16-16v-30c0-9-7-16-16-16s-16 7-16 16v30c0 9 7 16 16 16zM63 232c0-9-7-16-16-16H16c-9 0-16 7-16 16s7 16 16 16h31c9 0 16-7 16-16zm1 67l-21 21c-6 6-6 16 0 22 3 3 8 4 12 4s8-1 11-4l20-21c6-6 6-16 0-22-3-3-7-5-11-5s-8 2-11 5zm191 44c6-6 6-16 0-22l-20-21c-3-3-7-4-11-4s-8 1-11 4h-1c-6 6-6 16 0 22l21 21c3 3 7 5 11 5s8-2 11-5zM77 175c4 0 8-2 11-5 6-6 6-16 0-22l-20-21c-3-3-7-5-11-5s-9 2-12 5c-6 6-6 17 0 23l21 20c3 3 7 5 11 5zm310 14c51 0 93-43 93-94S438 0 387 0H161c-41 0-74 36-74 77 0 39 29 73 67 76v17c2 39 24 74 56 92 5 3 10 5 15 7 13 5 26 8 41 8 54 0 99-39 110-89 3 0 6 1 9 1h2zm-252-25c-34 7-59 36-59 72 0 40 33 74 73 74 23 0 45-11 58-28h-1c-5-2-9-5-14-8-33-19-56-53-58-93v-6c0-3 1-7 1-10v-1z"/><glyph glyph-name="ion-md-cloudy-night" unicode="" horiz-adv-x="448" d="M91 265h2-2zm219-120c42-3 74-38 74-81 0-44-36-80-80-80H96C43-16 0 28 0 81c0 47 32 86 78 95 5 1 13 1 18 1 43 0 78-26 91-64h28c-6 21-16 40-32 56-21 21-48 32-77 34 21 27 52 39 86 39 58 0 107-41 118-97zM80 223l-13-17v5c0 92 63 168 148 189-9-21-14-45-14-70 0-20 3-39 9-57-6 1-12 1-18 1-22 0-43-4-61-12-20-9-37-22-51-39zm306-82c-3 3-6 7-10 10h3c24 0 48 5 69 14-7-27-19-53-35-74-4 19-14 36-27 50z"/><glyph glyph-name="ion-md-nutrition" unicode="" d="M309 212c8-8 13-19 13-31 0-14-6-28-17-36L72-23c-9-6-19-9-28-9C19-32 0-12 0 12c0 8 2 15 5 21v1l158 255c8 10 21 16 35 16 10 0 20-4 28-10h1zm107 91l-109-56-42 41 68 128 49-28-32-56 37 20z"/><glyph glyph-name="ion-ios-options" unicode="" d="M251 72c6 14 21 24 37 24s31-10 37-24h75c9 0 16-7 16-16s-7-16-16-16h-75c-6-14-21-24-37-24s-31 10-37 24H16C7 40 0 47 0 56s7 16 16 16h235zM91 208c6 14 21 24 37 24s31-10 37-24h235c9 0 16-7 16-16s-7-16-16-16H165c-6-14-21-24-37-24s-31 10-37 24H16c-9 0-16 7-16 16s7 16 16 16h75zm160 136c6 14 21 24 37 24s31-10 37-24h75c9 0 16-7 16-16s-7-16-16-16h-75c-6-14-21-24-37-24s-31 10-37 24H16c-9 0-16 7-16 16s7 16 16 16h235z"/><glyph glyph-name="ion-md-log-out" unicode="" d="M144 171v42h190l-45 45 31 30 96-96-96-96-30 30 44 45H144zm64-144c44 0 85 17 116 48l30-30c-8-8-17-16-27-23-35-24-76-38-119-38C94-16 0 77 0 192s94 208 208 208c43 0 84-13 119-37 10-7 19-16 27-24l-30-30c-31 31-72 48-116 48s-86-17-117-48-48-73-48-117 17-86 48-117 73-48 117-48zm193 165l-1 1-1-1 1-1z"/><glyph glyph-name="ion-md-appstore" unicode="" d="M416 296C397 82 403-16 403-16H13s6 96-13 312h104c0 57 47 104 104 104s104-47 104-104h104zm-208 78c-43 0-78-35-78-78h156c0 43-35 78-78 78zM156 50l143 85-143 84V50z"/><glyph glyph-name="ion-md-cellular" unicode="" horiz-adv-x="384" d="M0 0l384 384V0H0z"/><glyph glyph-name="ion-ios-beer" unicode="" horiz-adv-x="384" d="M48 286v-96H22c-9 0-17 8-17 17 0 16 11 22 11 35v51c0 19-16 12-16 41v4c0 26 25 43 50 43 10 0 18-1 23-2 6-1 12 1 16 6 9 10 22 17 36 17 9 0 19-2 26-7 6-4 13-2 17 3 10 11 23 18 44 18 24 0 47-16 56-39 2-5 7-9 13-9h1c21 0 38-17 38-38v-22c0-2-3-4-5-2-4 3-8 4-13 4H72c-13 0-24-11-24-24zM322-4c8 0 14-6 14-14s-6-14-14-14H46c-8 0-14 6-14 14S38-4 46-4h276zm14 258c26 0 48-22 48-48v-96c0-26-22-48-48-48h-32c0-12 2-18 5-30 1-6 0-12-5-16-3-3-7-4-11-4H79c-6 0-12 3-15 8-3 4-4 9-3 14 2 12 3 18 3 30v214c0 9 7 16 16 16h208c9 0 16-7 16-16v-24h32zm20-144v96c0 11-9 20-20 20h-32V90h32c11 0 20 9 20 20z"/><glyph glyph-name="ion-ios-snow" unicode="" horiz-adv-x="384" d="M377 102c7-4 9-13 5-20-3-5-8-8-13-8-3 0-6 1-8 2l-32 19c-4-16-2-32-2-32 1-8-4-15-12-17-1 0-2-1-3-1-7 0-13 6-14 13 0 1-4 26 6 52l-96 56V67c27-5 46-20 47-21 3-2 6-6 6-10s-1-8-4-11-7-5-11-5c-3 0-7 1-10 3 0 0-12 10-28 14V-1c0-8-8-15-16-15s-15 7-15 15v38c-16-4-29-14-29-14-3-2-7-3-10-3-4 0-8 2-11 5s-4 7-4 11 3 8 6 10c1 1 21 16 48 21v99l-96-56c10-26 6-51 6-52-1-7-7-13-14-13-1 0-2 1-3 1-8 2-13 9-12 17 0 0 2 16-3 32L23 76c-2-1-5-2-8-2-5 0-10 3-13 8-4 7-2 16 5 20l33 19c-12 12-26 19-26 19-8 3-11 11-9 19 2 6 7 9 13 9 2 0 4 0 6-1 1 0 24-10 42-31l96 56-96 56c-18-21-41-31-42-31-2-1-4-1-6-1-6 0-11 4-13 10-2 8 1 16 9 19 0 0 14 6 26 18L7 282c-7 4-9 13-5 20 3 5 8 8 13 8 3 0 6-1 8-2l32-19c5 16 3 32 3 32-1 8 4 16 12 18h3c7 0 13-6 14-13 0-1 4-26-6-52l96-56v100c-27 5-47 19-48 20-3 2-6 6-6 10s1 8 4 11 7 5 11 5 7-1 10-3c0 0 13-10 29-14v38c0 8 7 15 15 15s16-7 16-15v-38c16 4 28 14 28 14 3 2 7 3 10 3 4 0 8-2 11-5s4-7 4-11-3-8-6-10c-1-1-20-16-47-21v-99l96 56c-10 26-7 51-7 52 1 7 8 13 15 13 1 0 2-1 3-1 8-2 13-9 12-17 0-1-2-16 2-32l32 19c2 1 5 2 8 2 5 0 10-3 13-8 4-7 2-16-5-20l-33-19c12-12 26-19 26-19 8-3 11-11 9-19-2-6-7-9-13-9-2 0-4 0-6 1-1 0-24 10-42 31l-96-56 96-56c18 21 41 31 42 31 2 1 4 1 6 1 6 0 11-4 13-10 2-8-1-16-9-19 0 0-14-6-26-18z"/><glyph glyph-name="ion-ios-happy" unicode="" d="M208 400c115 0 208-93 208-208S323-16 208-16 0 77 0 192s93 208 208 208zm72-152c-13 0-24-11-24-24s11-24 24-24 24 11 24 24-11 24-24 24zm-144 0c-13 0-24-11-24-24s11-24 24-24 24 11 24 24-11 24-24 24zm72-169c45 0 82 30 94 71 2 5-3 10-8 10H122c-5 0-10-5-8-10 12-41 49-71 94-71z"/><glyph glyph-name="ion-md-wallet" unicode="" d="M155 107c0-24 18-43 42-43h197V43c0-24-18-43-42-43H44C20 0 0 18 0 42v300c0 24 20 42 44 42h308c23 0 42-19 42-43v-21H197c-24 0-42-19-42-43V107zm42 155c0 9 7 16 16 16h187c9 0 16-7 16-16V122c0-9-7-16-16-16H213c-9 0-16 7-16 16v140zm77-102c16 1 29 14 30 30 1 19-15 35-34 34-16-1-29-14-30-30-1-19 15-35 34-34z"/><glyph glyph-name="ion-md-funnel" unicode="" horiz-adv-x="448" d="M176 48v48h96V48h-96zM0 336h448v-48H0v48zm80-169v50h288v-50H80z"/><glyph glyph-name="ion-ios-refresh-circle" unicode="" d="M208 400c115 0 208-93 208-208S323-16 208-16 0 77 0 192s93 208 208 208zm0-336c67 0 123 51 128 117 0 6-4 11-10 11-5 0-10-4-10-9-4-55-51-98-107-99-59-1-108 47-109 106-1 60 48 110 108 110v-42c0-6 7-10 12-7l73 47c5 3 5 10 0 13l-73 53c-5 4-12-1-12-7v-37c-71 0-128-57-128-128S137 64 208 64z"/><glyph glyph-name="ion-ios-watch" unicode="" d="M392 287c16-25 24-53 24-82v-41c0-21-4-40-12-58-8-17-19-33-33-46-28-25-66-39-108-39-41 0-54 8-65 14-7 4-13 6-27 7-38 2-69 16-94 40-3 2-4 5-4 9 0 3 2 7 4 9 2 3 5 4 9 4 3 0 8-1 10-3 20-19 45-30 77-32 20-1 29-6 37-11 9-5 19-10 53-10 35 0 67 12 90 32 12 10 21 22 27 36 7 15 10 31 10 48v41c0 24-7 48-20 68-12 20-30 35-51 46-3 2-6 5-7 8s-1 7 1 10c2 4 7 7 12 7 2 0 4 0 6-1 25-13 46-32 61-56zM236 65c-6 1-11 6-11 13v2c1 6 7 11 13 11h2c7-1 14-2 21-2 26 0 48 9 65 25 2 2 6 4 9 4 4 0 7-2 9-5 5-5 5-13 0-18-11-10-24-19-38-24s-29-8-45-8c-8 0-16 1-25 2zm2 21zm-63-60c7 0 13-6 13-13s-6-13-13-13C129 0 89 16 54 47S0 120 0 161v44c0 29 8 57 24 82 15 24 36 43 61 56 2 1 4 1 6 1 5 0 10-3 12-7 2-3 2-7 1-10s-4-6-7-8c-21-11-39-26-51-46-13-20-20-44-20-68v-44c0-34 17-68 46-94 30-27 63-41 103-41zm125 307c-1-14 11-26 25-26 2 0 3-3 1-4-8-7-18-10-29-10H119c-11 0-21 3-29 9-1 1 0 3 0 4s1 1 2 1c13 1 24 12 23 26-1 12-11 22-23 23-4 0-7-1-10-2s-5 2-4 4c8 16 23 26 41 26h178c11 0 22-4 30-11 5-4 8-9 11-15 1-2 0-5-3-4-4 2-8 2-12 2-12-1-22-11-23-23zm-21 10c-2 8-9 15-17 17-16 4-31-10-27-26 2-8 9-15 17-17 16-4 31 10 27 26z"/><glyph glyph-name="ion-ios-reorder" unicode="" horiz-adv-x="352" d="M0 128v16h352v-16H0zm0 56v16h352v-16H0zm0 56v16h352v-16H0z"/><glyph glyph-name="ion-ios-volume-high" unicode="" horiz-adv-x="383" d="M151 302c6-3 9-8 9-14V96c0-6-3-11-9-14-2-1-5-2-7-2-4 0-7 2-10 4l-65 52H16c-9 0-16 7-16 16v80c0 9 7 16 16 16h53l65 53c3 2 6 3 10 3 2 0 5-1 7-2zm232-110c0-59-23-114-65-156-2-2-6-4-9-4s-6 2-8 4c-5 5-5 12 0 17 38 37 58 86 58 139s-20 102-58 139c-5 5-5 12 0 17s12 5 17 0c42-42 65-97 65-156zm-63 0c0-44-16-84-46-115-2-2-6-4-9-4s-6 2-8 4c-5 5-6 12-1 17 26 26 40 61 40 98s-14 72-40 98c-5 5-4 12 1 17s12 5 17 0c30-31 46-71 46-115zm-97 74c19-20 30-46 30-74s-11-54-30-74c-2-2-6-3-9-3s-6 1-8 3c-5 5-5 12 0 17 15 15 23 36 23 57 0 22-8 42-23 57-5 5-5 12 0 17s12 5 17 0z"/><glyph glyph-name="ion-ios-contrast" unicode="" d="M208 400c115 0 208-93 208-208S323-16 208-16 0 77 0 192s93 208 208 208zM335 65c34 34 53 79 53 127s-19 93-53 127-79 53-127 53V12c48 0 93 19 127 53z"/><glyph glyph-name="ion-ios-today" unicode="" horiz-adv-x="384" d="M324 416c33 0 60-27 60-60V28c0-33-27-60-60-60H60C27-32 0-5 0 28v328c0 33 27 60 60 60h264zm32-388v328c0 18-14 32-32 32H60c-18 0-32-14-32-32V28C28 10 42-4 60-4h264c18 0 32 14 32 32zm-60 244c13 0 24-11 24-24V56c0-13-11-24-24-24H88c-13 0-24 11-24 24v192c0 13 11 24 24 24h208zM78 324c-8 0-14 6-14 14s6 14 14 14h100c8 0 14-6 14-14s-6-14-14-14H78z"/><glyph glyph-name="ion-ios-mic-off" unicode="" horiz-adv-x="256" d="M242-16c-5 0-9 3-12 7L2 379c-4 7-2 15 5 19s16 2 20-5L254 5c4-7 2-15-5-19-2-1-5-2-7-2zm-50 192c0-9-2-17-5-25L67 356c8 26 33 44 61 44 35 0 64-29 64-64V176zm-128 0v65l75-128c-4-1-7-1-11-1-35 0-64 29-64 64zm174-3c0-26-9-49-24-68l-15 26c7 12 11 27 11 42v69c0 8 6 14 14 14s14-6 14-14v-69zM128 91c8 0 15 1 22 3l15-25c-7-3-15-4-23-5V12h36c8 0 14-6 14-14s-6-14-14-14H78c-8 0-14 6-14 14s6 14 14 14h36v52c-54 7-96 53-96 109v69c0 8 6 14 14 14s14-6 14-14v-69c0-45 37-82 82-82z"/><glyph glyph-name="ion-ios-medkit" unicode="" d="M384 320c18 0 32-14 32-32V32c0-18-14-32-32-32H32C14 0 0 14 0 32v256c0 18 14 32 32 32h84v32c0 18 14 32 32 32h120c18 0 32-14 32-32v-32h84zm-240 28v-28h128v28c0 4-4 8-8 8H152c-4 0-8-4-8-8zm128-204c9 0 16 7 16 16s-7 16-16 16h-48v48c0 9-7 16-16 16s-16-7-16-16v-48h-48c-9 0-16-7-16-16s7-16 16-16h48V96c0-9 7-16 16-16s16 7 16 16v48h48z"/><glyph glyph-name="ion-ios-arrow-round-down" unicode="" horiz-adv-x="192" d="M188 152c5-5 5-13 0-18l-83-82c-2-2-6-4-9-4-2 0-3 0-5 1s-3 2-4 3L4 134c-5 5-5 13 0 18s13 6 18 1l61-61v231c0 7 6 13 13 13s13-6 13-13V92l61 60c5 5 13 5 18 0z"/><glyph glyph-name="ion-md-link" unicode="" horiz-adv-x="448" d="M43 192c0-38 31-69 69-69h88V80h-88C50 80 0 130 0 192s50 112 112 112h88v-43h-88c-38 0-69-31-69-69zm85-22v44h192v-44H128zm208 134c62 0 112-50 112-112S398 80 336 80h-88v43h88c38 0 69 31 69 69s-31 69-69 69h-88v43h88z"/><glyph glyph-name="ion-ios-chatbubbles" unicode="" d="M383 127l16-58s1-2 1-3c0-4-4-8-8-8-2 0-4 1-4 1l-57 21c-3 1-6 2-10 2-3 0-6-1-9-2s-15-5-26-8-32-8-47-8c-96 0-171 77-171 169 0 12 2 23 4 34 16 76 86 133 170 133 96 0 174-75 174-167 0-33-11-64-28-90-1-1-1-2-2-3-2-4-3-9-3-13zM270 56c4 1 9 2 13 3-4-5-7-9-7-9-30-35-73-56-120-56-21 0-42 5-61 12-4 2-6 2-6 2-2 0-4 0-6-1L27-15c-1 0-2-1-3-1-2 0-3 1-5 2-2 2-4 5-3 8 0 0 12 60 12 62s-1 4-3 8C9 88 0 117 0 146c0 42 19 82 52 111l8 7c-1-4-3-9-4-13s-1-9-2-13c-1-6-2-14-2-21 0-92 75-169 171-169 10 0 24 2 34 4 5 1 9 3 13 4z"/><glyph glyph-name="ion-ios-beaker" unicode="" horiz-adv-x="384" d="M381 400c2 0 3-1 3-2s-2-4-3-6-12-15-14-33V49c0-35-28-65-63-65H96c-35 0-64 29-64 64v276c0 32-2 32-32 36 0 12 10 40 64 40h317zM48 371c12-13 12-29 12-47v-36h279v74c0 3 1 6 2 10H64c-4 0-10 0-16-1z"/><glyph glyph-name="ion-ios-git-branch" unicode="" horiz-adv-x="332" d="M262 352c39 0 70-31 70-70 0-34-24-63-56-69-1-28-14-46-38-64-25-19-56-25-78-29-27-5-42-14-51-24 19-13 31-35 31-58 0-39-31-70-70-70S0-1 0 38c0 17 6 33 17 46 10 11 24 19 38 22v172c-15 3-28 11-38 22-11 13-17 29-17 46 0 39 31 70 70 70s70-31 70-70c0-17-6-34-18-47-10-11-24-19-39-22V108c10 13 32 33 73 40 19 3 45 7 65 23 17 13 26 24 27 43-32 7-56 35-56 68 0 39 31 70 70 70zm-234-6c0-23 19-42 42-42s42 19 42 42-19 42-42 42-42-19-42-42zm84-308c0 23-19 42-42 42S28 61 28 38 47-4 70-4s42 19 42 42zm150 202c23 0 42 19 42 42s-19 42-42 42-42-19-42-42 19-42 42-42z"/><glyph glyph-name="ion-logo-google" unicode="" horiz-adv-x="408" d="M406 224c0-1 2-14 2-37 0-54-18-106-54-144s-87-59-141-59C154-16 97 6 57 48 19 87 0 140 0 192s20 108 59 147c40 39 94 61 150 61 73 0 120-38 137-53l-58-58c-10 9-38 30-77 30-34 0-68-12-90-35-23-23-39-58-39-92 0-35 15-69 39-92 23-22 58-36 91-36 46 0 102 30 114 87H210v82h194z"/><glyph glyph-name="ion-ios-recording" unicode="" horiz-adv-x="480" d="M370 302c61 0 110-49 110-110S431 82 370 82H110C49 82 0 131 0 192s49 110 110 110 110-49 110-110c0-30-12-58-32-78h105c-20 20-33 48-33 78 0 61 49 110 110 110zm78-110c0 43-35 78-78 78s-78-35-78-78 35-78 78-78 78 35 78 78zm-338-78c43 0 78 35 78 78s-35 78-78 78-78-35-78-78 35-78 78-78z"/><glyph glyph-name="ion-md-checkmark-circle" unicode="" d="M208 400c114 0 208-94 208-208S322-16 208-16 0 78 0 192s94 208 208 208zM165 81l192 192-29 30-163-162-76 77-30-30z"/><glyph glyph-name="ion-ios-checkbox-outline" unicode="" horiz-adv-x="384" d="M352 384c18 0 32-14 32-32V32c0-18-14-32-32-32H32C14 0 0 14 0 32v320c0 18 14 32 32 32h320zm4-348v312c0 4-4 8-8 8H36c-4 0-8-4-8-8V36c0-4 4-8 8-8h312c4 0 8 4 8 8zm-56 219c2-2 1-4 0-6L166 115c-2-2-7-5-12-5-4 0-7 1-11 5l-56 56c-2 2-2 4 0 6l17 18c1 1 2 1 3 1s2 0 3-1l44-45 122 123c1 1 2 1 3 1s2 0 3-1z"/><glyph glyph-name="ion-ios-arrow-round-up" unicode="" horiz-adv-x="192" d="M188 232c-5-5-13-5-18 0l-61 60V61c0-7-6-13-13-13s-13 6-13 13v231l-61-61c-5-5-13-4-18 1s-5 13 0 18l83 82c1 1 2 2 4 3s3 1 5 1c3 0 7-2 9-4l83-82c5-5 5-13 0-18z"/><glyph glyph-name="ion-ios-home" unicode="" d="M211 344l156-125c1-1 1-2 1-3V-14c0-1-1-2-2-2H258c-1 0-2 1-2 2v140c0 1-1 2-2 2h-92c-1 0-2-1-2-2V-14c0-1-1-2-2-2H50c-1 0-2 1-2 2v230c0 1 1 2 2 3l156 125c2 1 3 1 5 0zm200-100c3-2 5-6 5-10s-1-8-4-11-6-4-10-4c-3 0-7 1-9 3L209 369l-1 1-1-1L23 221c-2-2-6-3-9-3-4 0-7 1-10 4s-4 7-4 11 2 8 5 10l43 35v92c0 1 1 2 2 2h60c1 0 2-1 2-2v-42l82 67c4 3 9 5 14 5s10-2 14-5z"/><glyph glyph-name="ion-ios-paper" unicode="" d="M76 368c0 18 12 30 30 30l278 2c18 0 32-14 32-32V15c0-17-14-31-31-31H32C14-16 0-2 0 16v288c0 18 14 32 32 32h16V46c0-8 6-14 14-14s14 6 14 14v322zm66-32c-8 0-14-6-14-14s6-14 14-14h84c8 0 14 6 14 14s-6 14-14 14h-84zm0-160c-8 0-14-6-14-14s6-14 14-14h148c8 0 14 6 14 14s-6 14-14 14H142zM338 68c8 0 14 6 14 14s-6 14-14 14H142c-8 0-14-6-14-14s6-14 14-14h196zm0 160c8 0 14 6 14 14s-6 14-14 14H142c-8 0-14-6-14-14s6-14 14-14h196z"/><glyph glyph-name="ion-md-cafe" unicode="" d="M0 0v48h368V0H0zm376 384c22 0 40-18 40-40v-80c0-22-18-40-40-40h-40v-64c0-44-36-80-80-80H112c-44 0-80 36-80 80v224h344zm0-112v64h-40v-64h40z"/><glyph glyph-name="ion-md-medical" unicode="" horiz-adv-x="408" d="M300 192l108-62-48-84-108 63V-16h-96v125L48 46 0 130l108 62L0 254l48 84 108-63v125h96V275l108 63 48-84z"/><glyph glyph-name="ion-ios-log-in" unicode="" horiz-adv-x="414" d="M368 368c25 0 46-21 46-46V62c0-25-21-46-46-46H88c-25 0-46 21-46 46 0 8 6 14 14 14s14-6 14-14c0-10 8-18 18-18h280c10 0 18 8 18 18v260c0 10-8 18-18 18H88c-10 0-18-8-18-18 0-8-6-14-14-14s-14 6-14 14c0 25 21 46 46 46h280zM175 114l64 64H14c-8 0-14 6-14 14s6 14 14 14h224l-65 64c-6 6-6 14 0 20 3 3 6 4 10 4s7-1 10-4l84-84c4-4 7-10 7-15s-3-11-7-15l-82-82c-3-3-6-4-10-4s-7 2-10 4c-5 6-5 15 0 20z"/><glyph glyph-name="ion-ios-return-right" unicode="" horiz-adv-x="384" d="M378 183c4-4 6-10 6-16s-3-11-7-15l-57-58c-3-3-6-4-10-4s-7 2-10 4c-3 3-4 6-4 10s1 7 4 10l40 40H78c-21 0-40 8-55 23S0 211 0 232v48c0 8 6 14 14 14s14-6 14-14v-48c0-13 5-25 15-35s22-15 35-15h261l-41 40c-3 3-4 6-4 10s1 7 4 10 6 4 10 4 7-1 10-4z"/><glyph glyph-name="ion-logo-bitbucket" unicode="" d="M405 384c7-1 12-8 11-16l-18-113H142l22-127h88l16 96h125L359 12c-1-7-6-12-13-12H75c-4 0-9 1-12 4s-5 8-6 12L0 368v2c0 8 7 14 14 14h391z"/><glyph glyph-name="ion-ios-man" unicode="" horiz-adv-x="228" d="M114 341c-25 0-46 21-46 46s21 45 46 45 45-20 45-45c0-12-4-24-13-32-8-9-20-14-32-14zM79-48c-14 0-27 10-27 30l1 278H43V155c0-9-3-15-6-18-4-4-9-7-15-7s-12 3-16 7c-3 3-6 9-6 18v122c0 14 5 27 14 38 10 12 24 18 39 18h122c15 0 29-6 39-18 9-11 14-24 14-38V155c0-7-2-14-7-18-4-4-9-7-15-7s-12 3-16 7c-5 4-6 11-6 18v105h-9V-18c0-20-14-30-28-30-13 0-26 10-27 30v141h-12V-18c-1-20-15-30-29-30z"/><glyph glyph-name="ion-md-lock" unicode="" horiz-adv-x="320" d="M280 262c22 0 40-18 40-40V22c0-22-18-40-40-40H40C18-18 0 0 0 22v200c0 22 18 40 40 40h20v40c0 55 45 100 100 100s100-45 100-100v-40h20zM160 80c22 0 40 18 40 40s-18 40-40 40-40-18-40-40 18-40 40-40zm62 182v40c0 34-28 62-62 62s-62-28-62-62v-40h124z"/><glyph glyph-name="ion-ios-flask" unicode="" horiz-adv-x="385" d="M374 94c8-16 11-32 11-46-1-36-27-64-63-64H65C29-16 1 12 0 48c0 14 4 30 12 46l116 194v80c0 2-2 4-4 4-7 0-12 5-12 12v4c0 7 5 12 12 12h137c7 0 12-5 12-12v-4c0-7-5-12-12-12-2 0-4-2-4-4v-80zM98 160h189c6 0 10 7 7 12l-61 102c-3 5-4 10-4 16v82h-73v-82c0-6-1-11-4-16L91 172c-3-5 1-12 7-12z"/><glyph glyph-name="ion-md-remove-circle" unicode="" d="M208 400c115 0 208-93 208-208S323-16 208-16 0 77 0 192s93 208 208 208zm107-229v42H101v-42h214z"/><glyph glyph-name="ion-md-code-download" unicode="" horiz-adv-x="448" d="M203 288h42V162l45 45 30-31-96-96-96 96 30 30 45-44v126zM158 94l-30-30L0 192l128 128 30-30-98-98zm132 0l98 98-98 98 30 30 128-128L320 64z"/><glyph glyph-name="ion-ios-wine" unicode="" horiz-adv-x="208" d="M177 397c9-25 31-87 31-125v-5c0-19 0-45-28-74-7-7-15-13-23-20-19-15-39-31-39-50V8c0-1 1-2 2-2h57c8 0 15-6 15-14s-7-14-15-14H31c-8 0-15 6-15 14S23 6 31 6h57c1 0 2 1 2 2v115c0 19-20 35-39 50-8 7-17 13-23 20-28 29-28 55-28 74v5c0 38 22 100 31 125 2 6 7 9 13 9h120c6 0 11-3 13-9zm-1-102v1c-5 26-15 60-22 81 0 1-1 1-2 1H56c-1 0-2 0-2-1-7-21-17-55-22-81v-1s1-1 2-1h140c1 0 2 1 2 1z"/><glyph glyph-name="ion-ios-expand" unicode="" horiz-adv-x="384" d="M48 356l117-117c5-5 5-15 0-20-3-3-6-4-10-4s-7 1-10 4L28 336v-78c0-8-6-14-14-14s-14 6-14 14v112c0 8 6 14 14 14h112c8 0 14-6 14-14s-6-14-14-14H48zm322 28c8 0 14-6 14-14V258c0-8-6-14-14-14s-14 6-14 14v78L239 219c-3-3-6-4-10-4s-7 1-10 4c-5 5-5 15 0 20l117 117h-78c-8 0-14 6-14 14s6 14 14 14h112zM155 169c4 0 7-1 10-4 5-5 5-15 0-20L48 28h78c8 0 14-6 14-14s-6-14-14-14H14C6 0 0 6 0 14v112c0 8 6 14 14 14s14-6 14-14V48l117 117c3 3 6 4 10 4zm215-29c8 0 14-6 14-14V14c0-8-6-14-14-14H258c-8 0-14 6-14 14s6 14 14 14h78L219 145c-5 5-5 15 0 20 3 3 6 4 10 4s7-1 10-4L356 48v78c0 8 6 14 14 14z"/><glyph glyph-name="ion-ios-list" unicode="" horiz-adv-x="384" d="M0 192c0 15 13 28 28 28s28-13 28-28-13-28-28-28-28 13-28 28zm0 124c0 15 13 28 28 28s28-13 28-28-13-28-28-28-28 13-28 28zM0 68c0 15 13 28 28 28s28-13 28-28-13-28-28-28S0 53 0 68zm368 140c9 0 16-7 16-16s-7-16-16-16H128c-9 0-16 7-16 16s7 16 16 16h240zm0-124c9 0 16-7 16-16s-7-16-16-16H128c-9 0-16 7-16 16s7 16 16 16h240zM128 300c-9 0-16 7-16 16s7 16 16 16h240c9 0 16-7 16-16s-7-16-16-16H128z"/><glyph glyph-name="ion-md-keypad" unicode="" horiz-adv-x="320" d="M160 50c22 0 40-19 40-41s-18-41-40-41-40 19-40 41 18 41 40 41zM40 416c22 0 41-19 41-41s-19-40-41-40-40 18-40 40 18 41 40 41zm0-122c22 0 41-19 41-41s-19-41-41-41-40 19-40 41 18 41 40 41zm0-122c22 0 41-19 41-41S62 90 40 90 0 109 0 131s18 41 40 41zm240 162c-22 0-41 19-41 41s19 41 41 41 40-19 40-41-18-41-40-41zM160 172c22 0 40-19 40-41s-18-41-40-41-40 19-40 41 18 41 40 41zm120 0c22 0 40-19 40-41s-18-41-40-41-41 19-41 41 19 41 41 41zm0 122c22 0 40-19 40-41s-18-41-40-41-41 19-41 41 19 41 41 41zm-120 0c22 0 40-19 40-41s-18-41-40-41-40 19-40 41 18 41 40 41zm0 122c22 0 40-19 40-41s-18-40-40-40-40 18-40 40 18 41 40 41z"/><glyph glyph-name="ion-logo-octocat" unicode="" horiz-adv-x="448" d="M146 160c8 0 16-3 22-12 6-8 10-20 10-32s-4-23-10-31-14-13-22-13c-9 0-17 5-23 13s-9 19-9 31 3 24 9 32c6 9 14 12 23 12zm157 0c9 0 16-3 22-12 6-8 9-20 9-32s-3-23-9-31-14-13-22-13c-9 0-17 5-23 13s-10 19-10 31 4 24 10 32c6 9 14 12 23 12zm111 116c24-27 34-66 34-96 0-24 0-46-6-65s-13-35-21-47c-9-12-20-23-32-32-13-9-24-17-34-21s-22-7-36-9c-13-2-24-4-31-4 0 0-28-2-64-2s-64 2-64 2c-7 0-18 2-31 4-14 2-26 5-36 9S71 27 59 36c-13 9-23 20-32 32-8 12-15 28-21 47-5 19-6 41-6 65 0 31 10 70 34 96 0 0-2 14 0 39s7 48 16 69c30-3 67-20 112-51 15 4 36 6 62 6 28 0 48-2 62-6 20 14 40 25 58 33 19 8 33 13 41 15s13 3 13 3c9-21 14-44 16-69s0-39 0-39zM348 42c28 13 42 40 42 81 0 24-8 43-26 59-9 8-20 13-32 15s-31 1-56-1-40-4-52-4-25 2-42 3-30 3-39 3c-10 0-20 1-31-2s-21-8-28-14c-17-15-25-35-25-59 0-41 13-68 41-81 27-13 69-18 123-18h2c54 0 95 5 123 18z"/><glyph glyph-name="ion-ios-planet" unicode="" d="M415 96c2-6 2-12-1-17-3-6-11-9-22-9-37 0-120 32-208 81-54 30-103 64-137 92-38 32-53 54-45 67 4 7 11 10 23 10 16 0 48-10 83-24 3-1 3-5 1-7l-11-10c-1-1-2-2-4-1-21 8-46 16-57 19-4 1-6-3-4-6 10-13 25-24 39-35 7-6 15-11 23-17 8 21 23 39 41 52 21 15 44 23 70 23 32 0 63-11 86-33 24-23 37-54 37-87 0-26-9-51-25-72 10-4 19-8 28-11 15-6 34-11 44-13 3-1 6 3 4 6-6 8-26 24-42 36-2 1-3 4-2 6l5 13c1 3 4 4 7 2 24-18 45-35 55-47 6-7 10-12 12-18zm-151-2c2-1 4-3 4-5s-1-4-3-5c-20-13-42-20-66-20-32 0-63 12-86 35s-36 53-36 85c0 1 1 3 1 4 0 2 1 4 3 5 1 0 2 1 3 1s2-1 3-2c25-17 54-36 84-53 33-19 64-32 93-45z"/><glyph glyph-name="ion-logo-usd" unicode="" horiz-adv-x="320" d="M315 145c3-10 5-19 5-29 0-21-5-38-14-53s-20-26-35-35-31-17-50-21c-10-2-19-3-29-4v-35h-64V3c-9 1-19 4-28 6-20 5-36 12-51 23S23 56 14 73C6 89 1 107 0 128h69c0-12 2-24 7-33 5-10 12-17 21-23s20-11 31-14v120c-8 2-18 4-27 6-17 4-30 9-41 16s-20 15-27 23-11 17-14 26-4 18-4 28c0 18 4 34 12 48s19 25 33 34 29 16 46 20c7 2 15 3 22 4v33h64v-33c9-1 16-4 24-6 18-5 34-12 48-22s25-22 33-37c7-13 11-28 12-46h-69c-3 21-12 37-26 46-7 4-13 8-22 10V222c9-2 16-4 25-6 12-3 22-6 27-7 13-4 23-9 33-15 10-7 18-14 24-22s11-17 14-27zm-187 93v92c-7-2-15-4-21-7-7-4-12-9-17-15s-7-14-7-23c0-13 4-24 13-31 8-7 20-12 32-16zM247 89c3 7 4 13 4 20 0 14-3 24-10 31s-15 11-23 14-16 5-26 8V55c6 1 10 2 14 3 11 3 20 8 27 13s11 11 14 18z"/><glyph glyph-name="ion-ios-bulb" unicode="" horiz-adv-x="296" d="M296 259c0-31-13-56-30-80-11-15-22-18-32-35-14-24-17-41-18-56 0-8-8-15-16-15h-10c-2 0-4 2-4 4v94c0 5 1 11 3 15l22 42c3 7-1 15-9 15-4 0-7-3-9-6l-26-51c-2-4-3-9-3-14V77c0-2-2-4-4-4h-24c-2 0-4 2-4 4v95c0 5-1 10-3 14l-26 51c-2 4-5 6-9 6-8 0-13-8-9-15l21-42c2-4 3-9 3-14V77c0-2-2-4-4-4h-9c-8 0-16 6-16 15-1 15-4 31-19 56-10 17-20 20-31 35-17 24-30 49-30 80 0 78 70 141 148 141s148-63 148-141zM130-16c-8 0-14 6-14 14s6 14 14 14h36c8 0 14-6 14-14s-6-14-14-14h-36zm-20 44c-8 0-14 6-14 14s6 14 14 14h76c8 0 14-6 14-14s-6-14-14-14h-76z"/><glyph glyph-name="ion-md-map" unicode="" horiz-adv-x="384" d="M373 384c6 0 11-5 11-11V51c0-5-3-9-7-10L256 0 128 45S23 4 20 3s-7-3-9-3C5 0 0 5 0 11v322c0 5 3 9 7 10l121 41 128-45s103 40 108 42 7 3 9 3zM256 43v254l-128 44V87z"/><glyph glyph-name="ion-md-time" unicode="" d="M208 400c115 0 208-93 208-208S323-16 208-16 0 77 0 192s93 208 208 208zm0-374c92 0 166 74 166 166s-74 166-166 166S42 284 42 192 116 26 208 26zm10 270V187l94-56-16-25-109 65v125h31z"/><glyph glyph-name="ion-logo-ionitron" unicode="" horiz-adv-x="426" d="M425 179c3-34-4-63-19-65h-7C381 35 312-27 227-32 156-36 93 1 58 57l-16-3C25 52 6 80 1 118s5 71 22 73l12 1c17 80 86 142 172 147 77 4 145-38 177-103 11-22 16-46 17-72 4 24-2 57-8 72 21 2 29-23 32-57zm-378 5c9-13 18-34 21-58 3-25 1-46-5-61 9 10 17 36 13 64-4 27-18 47-29 55zM231 68c8 0 15 8 15 16s-9 14-17 14c-9 0-14-8-14-16s8-14 16-14zm81 4c8 0 15 9 15 17s-9 14-17 14c-9 0-14-8-14-16s8-15 16-15zM123 378h-1c-1 1 0 3 0 4 0 3 2 6 5 9s8 6 14 9c1 0 1 1 2 1 1 1 3 1 4 1 4 6 9 12 17 14 7 1 14 0 19-4h4c6 0 12 1 16 0 3-1 6-2 8-3 1 0 2 1 3 1 3 0 6-3 6-6s-3-6-6-6v-1c-1-1-1-2-2-3s-3-2-4-3-2-1-3-2l-8-5h-1l1 2 6 3c1 1 3 2 4 3l3 3s1 2 2 3c-2 1-5 3-5 6 0 1 0 2 1 3-2 1-4 1-6 1h-16c-7-1-14-2-22-4-1 0-2-1-3-1 14 3 24 3 29 2 2-3 3-6 4-10 2-12-3-23-14-28l4-24-13-2-4 24c-12 0-21 9-23 21-1 4-1 7 0 10-1 0-2-1-3-1-4-2-8-5-11-7-3-3-5-6-5-8v-2s0-1 1-1c2-2 5-3 9-4 3-1 7-1 11-1h1l2-1h-3c-4 0-9 1-12 1-4 1-7 0-9 2-1 1-2 2-2 3v1z"/><glyph glyph-name="ion-ios-grid" unicode="" horiz-adv-x="384" d="M142 140c-1 0-2 1-2 2v100c0 1 1 2 2 2h100c1 0 2-1 2-2V142c0-1-1-2-2-2H142zM0 352c0 18 14 32 32 32h320c18 0 32-14 32-32V32c0-18-14-32-32-32H32C14 0 0 14 0 32v320zm330-108c8 0 14 6 14 14s-6 14-14 14h-56c-1 0-2 1-2 2v56c0 8-6 14-14 14s-14-6-14-14v-56c0-1-1-2-2-2H142c-1 0-2 1-2 2v56c0 8-6 14-14 14s-14-6-14-14v-56c0-1-1-2-2-2H54c-8 0-14-6-14-14s6-14 14-14h56c1 0 2-1 2-2V142c0-1-1-2-2-2H54c-8 0-14-6-14-14s6-14 14-14h56c1 0 2-1 2-2V54c0-8 6-14 14-14s14 6 14 14v56c0 1 1 2 2 2h100c1 0 2-1 2-2V54c0-8 6-14 14-14s14 6 14 14v56c0 1 1 2 2 2h56c8 0 14 6 14 14s-6 14-14 14h-56c-1 0-2 1-2 2v100c0 1 1 2 2 2h56z"/><glyph glyph-name="ion-logo-model-s" unicode="" horiz-adv-x="448" d="M412 240c9-6 23-16 32-26 0 0 4-28 4-62 0-48-6-93-6-93-2 0-3-1-5-1 0-1-1-13-2-21 0-2-1-5-6-5h-64c-2 0-5 1-5 3l-1 17h-12c-25 0-15 8-27 8-11 0-55-3-96-3s-85 3-96 3c-12 0-2-8-27-8H90l-1-17c0-2-3-3-5-3H19c-5 0-6 3-6 5-1 8-2 20-2 21-2 0-3 1-5 1 0 0-6 45-6 93 0 33 4 62 4 62 9 10 23 19 32 25 3 2 3 7-1 8l-5 1c-7 0-23 2-26 5s-4 6-4 9 2 8 5 11 15 5 23 6 9 0 11-1 3-7 3-12c0-3 3-6 6-7 2 0 2 1 3 3 5 13 12 34 21 51 12 21 23 27 28 29s9 3 43 6c34 4 64 4 81 4s46 0 80-4 38-4 43-6 17-8 29-29c9-16 14-36 19-49 1-3 5-5 8-4h1c1 0 2 2 2 3 0 6 1 14 3 15s2 2 10 1 21-3 24-6 5-8 5-11-1-6-4-9-19-5-26-5l-5-1c-4-1-4-5-1-7zM91 293c-4-9-10-31-9-33s-1-4 12-3 91 3 130 3 117-2 130-3 11 1 12 3-6 24-10 33c-2 5-6 11-10 17-5 7-12 12-20 13-17 3-53 7-102 7s-85-4-102-7c-8-1-16-6-21-13-4-6-8-12-10-17zm9-116c6 0 14 2 20 3 4 1 4 5 1 7-7 5-20 13-37 18-26 7-41 7-55 7-2 0-4-1-4-3 0-4-1-11 1-19 2-11 26-15 28-15s6 3 11 3 25-1 35-1zm210-73c13 2 28 16 18 30-6 8-21 14-49 18-30 4-48 4-55 4s-26 0-56-4c-28-4-41-10-49-18-11-13 6-28 19-30s58-2 86-2 73 0 86 2zm112 85c2 8 0 16 0 20 0 2-1 3-3 3-14 0-30-1-56-8-17-5-30-12-37-17-3-2-2-6 2-7 6-1 14-3 20-3 10 0 30 1 35 1s9-4 11-4 26 4 28 15z"/><glyph glyph-name="ion-ios-hand" unicode="" horiz-adv-x="320" d="M299 331c12 0 21-10 21-21V77c0-55-32-93-78-93h-58L144-5C101 20 50 91 31 113c-20 22-39 41-27 53 18 17 40 7 66-16l28-24v219c0 11 9 20 21 20s21-9 21-20V218c0-5 4-9 9-9s9 4 9 9v161c0 11 9 21 21 21s21-10 21-21V235c0-5 4-8 9-8s9 3 9 8v127c0 11 9 21 21 21s21-10 21-21V201c0-5 4-9 9-9s9 4 9 9v109c0 11 9 21 21 21z"/><glyph glyph-name="ion-md-brush" unicode="" horiz-adv-x="448" d="M118 146c39 0 71-32 71-70 0-51-43-92-95-92C58-16 22 2 0 30c20 0 47 16 47 46 0 38 32 70 71 70zm323 216c9-9 9-23 0-32L230 123l-65 63 211 207c9 9 25 9 34 0z"/><glyph glyph-name="ion-ios-add-circle-outline" unicode="" d="M298 208c9 0 16-7 16-16s-7-16-16-16h-74v-74c0-9-7-16-16-16s-16 6-16 16v74h-74s-16 6-16 16 7 16 16 16h74v74c0 9 7 16 16 16s16-7 16-16v-74h74zm-90 164c-48 0-93-19-127-53s-53-79-53-127S47 99 81 65s79-53 127-53 93 19 127 53 53 79 53 127-19 93-53 127-79 53-127 53zm0 28c115 0 208-93 208-208S323-16 208-16 0 77 0 192s93 208 208 208z"/><glyph glyph-name="ion-ios-mail-unread" unicode="" d="M320 296c0 27 21 48 48 48s48-21 48-48-21-48-48-48-48 21-48 48zm48-66c19 0 36 7 48 20V72c0-18-14-32-32-32H32C14 40 0 54 0 72v219c0 2 2 3 3 2l108-110c1-1 1-2 0-3l-75-80c-5-5-5-13 0-18 2-2 6-4 9-4s7 2 9 4l75 80c1 1 2 1 3 0l18-18c16-16 36-25 58-25s43 8 58 24l18 19c1 1 2 1 3 0l75-80c2-2 6-4 9-4s7 2 9 4c5 5 5 13 0 18l-75 80c-1 1-1 2 0 3l47 48c5-1 11-1 16-1zm-66 66c0-22 10-41 26-53l-81-82c-10-11-24-16-39-16s-29 5-39 16L12 321c5 4 12 7 20 7h278c-5-10-8-20-8-32z"/><glyph glyph-name="ion-md-desktop" unicode="" horiz-adv-x="448" d="M405 416c23 0 43-20 43-43V91c0-23-20-43-43-43H267l42-48v-32H139V0l42 48H43C20 48 0 68 0 91v282c0 23 20 43 43 43h362zm0-288v245H43V128h362z"/><glyph glyph-name="ion-ios-briefcase" unicode="" d="M32 0C14 0 0 14 0 32v192h416V32c0-18-14-32-32-32H32zm352 320c18 0 32-14 32-32v-40H0v40c0 18 14 32 32 32h8v8c0 4 4 8 8 8h32c4 0 8-4 8-8v-8h28v32c0 18 14 32 32 32h120c18 0 32-14 32-32v-32h28v8c0 4 4 8 8 8h32c4 0 8-4 8-8v-8h8zm-112 0v28c0 4-4 8-8 8H152c-4 0-8-4-8-8v-28h128z"/><glyph glyph-name="ion-ios-cloud-circle" unicode="" d="M208 400c115 0 208-93 208-208S323-16 208-16 0 77 0 192s93 208 208 208zm83-272c25 0 45 21 45 47 0 23-16 42-38 46-4 38-34 67-72 67-26 0-49-14-62-34-4 2-10 4-15 4-20 0-36-17-36-37-20-6-33-25-33-46 0-26 20-47 45-47h166z"/><glyph glyph-name="ion-md-trophy" unicode="" d="M344 343h72c0-62-13-108-21-127s-34-52-59-70c-24-17-95-53-104-58V60c3-9 17-28 78-28h26v-48H80v48h21c60 0 78 18 83 28v28c-9 4-74 35-104 58-32 25-48 46-59 70S0 275 0 343h71c-1 27 0 56 0 57h273c0-1 1-30 0-57zM62 236c10-20 24-37 41-51-11 26-19 58-26 97-1 5-1 10-2 16H46c2-24 7-44 16-62zm292 0c9 18 14 38 16 62h-29c-1-6-1-11-2-16-7-40-15-71-26-97 18 14 31 31 41 51z"/><glyph glyph-name="ion-md-apps" unicode="" horiz-adv-x="320" d="M0 272v80h80v-80H0zM120 32v80h80V32h-80zM0 32v80h80V32H0zm0 120v80h80v-80H0zm120 0v80h80v-80h-80zm120 200h80v-80h-80v80zm-120-80v80h80v-80h-80zm120-120v80h80v-80h-80zm0-120v80h80V32h-80z"/><glyph glyph-name="ion-md-mail-open" unicode="" horiz-adv-x="448" d="M448 246V43c0-23-20-43-43-43H43C20 0 0 20 0 43v203c0 15 8 30 20 37l204 101 204-101c13-7 20-22 20-37zM224 144l171 112-171 85-171-85z"/><glyph glyph-name="ion-md-cart" unicode="" d="M122 70c23 0 41-18 41-41s-18-42-41-42S80 6 80 29s19 41 42 41zM0 397h68l19-42h308c11 0 21-9 21-20 0-4-1-8-2-10l-75-129c-7-14-20-22-36-22H148l-21-32s-2-5-2-6c0-3 2-5 5-5h238V91H125c-26 0-45 14-45 42 0 7 2 15 5 20l31 51-74 151H0v42zM326 70c23 0 42-18 42-41s-19-42-42-42-41 19-41 42 18 41 41 41z"/><glyph glyph-name="ion-md-archive" unicode="" d="M406 348c7-7 10-17 10-29V30c0-25-21-46-46-46H46C21-16 0 5 0 30v289c0 12 3 22 10 29l33 39c6 8 16 13 26 13h278c10 0 20-5 26-13zM208 65l127 127h-81v46h-92v-46H81zM49 354h317l-22 23H67z"/><glyph glyph-name="ion-logo-whatsapp" unicode="" horiz-adv-x="448" d="M228 416c121 0 220-97 220-218S349-20 228-20c-39 0-74 10-106 27L0-32 40 85C20 118 8 157 8 198c0 121 99 218 220 218zm109-301c5 13 6 24 5 26s-5 4-11 7-32 18-37 20-9 2-13-3-16-17-19-21-6-4-12-1-23 10-44 30c-16 15-27 33-30 39s0 9 3 12c3 2 6 6 9 9s4 5 6 9 1 7 0 10-12 31-16 42-10 11-13 11h-10s-10-2-15-7-21-19-22-46 18-54 21-58 37-64 93-88 57-17 67-16 33 12 38 25z"/><glyph glyph-name="ion-md-paw" unicode="" d="M412 282c7-15 5-34-3-52-11-23-34-38-56-38-6 0-11 1-16 3-24 9-32 39-18 70 11 25 33 42 55 42 5 0 9-1 14-3 10-4 19-12 24-22zM97 265c14-31 6-61-18-70-5-2-11-3-16-3-22 0-45 15-56 38-9 17-9 37-2 52 5 10 13 18 23 22 5 2 9 3 14 3 22 0 44-17 55-42zm49 4c-30 1-57 28-61 61-3 20 4 40 17 54 9 9 20 15 33 16h7c29-1 50-26 54-60 3-22-1-43-14-57-8-8-18-13-30-14h-6zm62-45c69 0 139-97 139-176 0-24-12-43-24-51-14-10-24-13-45-13-13 0-22 2-28 6-12 7-26 10-40 10h-4c-14 0-28-3-40-10-6-4-15-6-28-6-21 0-31 3-45 13-12 8-24 27-24 51 0 79 70 176 139 176zm57 45c-12 1-23 6-31 14-13 14-17 35-14 57 4 34 26 59 55 60h6c13-1 24-7 33-16 13-13 20-34 17-54-4-34-30-60-60-61h-6z"/><glyph glyph-name="ion-md-tablet-landscape" unicode="" horiz-adv-x="448" d="M0 328c0 13 11 24 24 24h400c13 0 24-11 24-24V56c0-13-11-24-24-24H24C11 32 0 43 0 56v272zm384-8H48V64h336v256zm46-128c0 8-6 14-14 14s-14-6-14-14 6-14 14-14 14 6 14 14z"/><glyph glyph-name="ion-md-mail" unicode="" horiz-adv-x="448" d="M405 368c23 0 43-20 43-43V59c0-23-20-43-43-43H43C20 16 0 36 0 59v266c0 23 20 43 43 43h362zm-5-91v43L224 203 48 320v-43l176-117z"/><glyph glyph-name="ion-ios-git-compare" unicode="" horiz-adv-x="448" d="M202 120l59-59c4-4 7-10 7-16s-3-11-7-15l-57-58c-3-3-6-4-10-4s-7 2-10 4c-5 6-5 15 0 20l40 40h-90c-34 0-58 16-70 45-9 23-9 50-9 65v136c-15 3-28 11-38 22-11 13-17 29-17 46 0 39 31 70 70 70s70-31 70-70c0-17-6-34-18-47-10-11-24-19-39-22V142c0-17 1-42 9-59 8-16 22-23 42-23h89l-41 40c-3 3-4 6-4 10s1 7 4 10 6 4 10 4 7-1 10-4zM70 304c23 0 42 19 42 42s-19 42-42 42-42-19-42-42 19-42 42-42zm323-198c14-3 28-11 38-22 11-13 17-29 17-46 0-39-31-70-70-70s-70 31-70 70c0 17 6 34 18 47 10 11 24 19 39 22v135c0 17-1 41-9 58-8 16-22 24-42 24h-89l41-40c3-3 4-6 4-10s-1-7-4-10-6-4-10-4-7 1-10 4l-59 59c-4 4-7 10-7 16s3 11 7 15l57 58c3 3 6 4 10 4s7-2 10-4c5-6 5-15 0-20l-40-40h90c34 0 58-16 70-45 9-23 9-50 9-65V106zM378-4c23 0 42 19 42 42s-19 42-42 42-42-19-42-42 19-42 42-42z"/><glyph glyph-name="ion-ios-radio" unicode="" horiz-adv-x="448" d="M28 192c0-51 19-98 54-136 3-3 4-6 4-10s-1-7-4-10c-3-2-6-4-10-4s-7 1-10 4C22 79 0 134 0 192c0 59 22 113 62 156 3 3 6 4 10 4s7-1 10-4c6-6 5-14 0-20-35-38-54-85-54-136zm358 156c40-43 62-98 62-156S426 80 386 37c-3-3-6-5-10-5s-8 1-10 4c-6 6-5 14 0 20 35 38 54 85 54 136s-19 98-54 136c-3 3-4 6-4 10s1 7 4 10c3 2 6 4 10 4s7-1 10-4zM127 100c3-3 4-6 4-10s-1-6-4-9-6-5-10-5-7 2-10 5c-29 30-45 68-45 110 0 43 17 83 47 113 3 3 6 4 10 4s7-2 10-5c5-6 6-14 0-19-25-24-39-58-39-93 0-34 13-67 37-91zm212 204c30-30 47-70 47-112s-16-81-45-111c-2-3-6-5-10-5s-7 2-10 5c-5 5-5 14 0 19 24 24 37 58 37 92 0 35-14 68-39 92-6 6-5 14 0 19 3 3 6 5 10 5s7-1 10-4zm-164-39c5-6 5-15 0-20-14-14-23-33-23-53s8-39 22-53c3-3 4-6 4-10s-1-7-4-10-6-4-10-4-7 1-10 4c-19 19-30 45-30 72 0 28 11 54 31 74 3 3 6 4 10 4s7-1 10-4zm119 0c20-20 30-46 30-74 0-27-10-53-29-72-3-3-6-4-10-4s-7 1-10 4-4 6-4 10 1 7 4 10c14 14 21 32 21 52s-8 40-22 54c-6 6-5 15 0 20 3 3 6 4 10 4s7-1 10-4zm-70-35c21 0 38-17 38-38s-17-38-38-38-38 17-38 38 17 38 38 38z"/><glyph glyph-name="ion-md-rose" unicode="" d="M213 233c-32 41-61 76-95 93-14 7-24 11-30 14 86 25 120 76 120 76s35-52 119-78c-2-1-15-3-23-8-43-25-67-56-91-97zm-15-38c60-92 109-130 145-158-27-41-77-69-135-69-86 0-156 62-156 138 0 41 2 136-52 215 83 0 138-34 198-126zm218 126c-69-101-52-174-52-215 0-13-2-25-6-37-8 6-16 14-27 24-22 22-57 58-96 110 21 42 53 77 96 103 30 18 85 15 85 15z"/><glyph glyph-name="ion-md-build" unicode="" horiz-adv-x="448" d="M442 50c8-6 8-21-2-29l-47-47c-8-8-20-8-28 0L180 160c-47-18-101-8-140 31-41 41-51 102-27 151l90-88 61 62-88 88c49 22 110 14 151-27 39-39 48-94 30-141z"/><glyph glyph-name="ion-ios-chatboxes" unicode="" d="M378 278c21 0 38-17 38-38V85c0-21-21-38-42-38h-1c-6 0-10-2-10-8v-50c0-5-5-6-9-3l-63 58c-2 2-5 3-8 3H156c-21 0-38 17-38 38v155c0 21 17 38 38 38h222zm-252 24c-18 0-32-14-32-32V170H33c-18 0-33 14-33 32v165c0 18 15 33 33 33h238c18 0 33-15 33-33v-65H126z"/><glyph glyph-name="ion-ios-transgender" unicode="" d="M402 280c-8 0-13 6-13 13v60l-73-72c34-31 53-74 53-120 0-31-9-60-25-86l20-19 29 29c2 3 5 4 9 4s7-1 10-4c5-5 5-14 0-19l-29-30 29-29c5-5 5-14 0-19-2-3-6-4-10-4s-6 1-9 4l-29 29-30-29c-2-3-5-4-9-4s-7 1-10 4c-5 5-5 14 0 19l29 29-16 17C297 19 254 0 208 0c-43 0-84 17-114 47s-47 71-47 114c0 46 19 89 53 120l-17 16-30-30c-2-3-5-4-9-4s-7 1-10 4c-5 5-5 14 0 19l30 30-37 37v-60c0-8-5-13-13-13s-14 5-14 13v93c0 8 6 14 14 14h93c8 0 14-6 14-14s-6-13-14-13H47l37-37 28 28c2 3 6 4 10 4s6-1 9-4c5-5 5-14 0-19l-28-29 19-19c26 16 55 25 86 25s60-9 86-25l75 76h-60c-8 0-13 5-13 13s5 14 13 14h93c8 0 14-6 14-14v-93c0-8-6-13-14-13zm-60-119c0 36-14 70-39 95s-59 39-95 39-70-14-95-39-39-59-39-95 14-70 39-95 59-39 95-39 70 14 95 39 39 59 39 95z"/><glyph glyph-name="ion-ios-train" unicode="" horiz-adv-x="288" d="M282-8c6-5 6-14 0-20-3-3-6-4-10-4s-7 1-10 4l-14 14H40L26-28c-3-3-6-4-10-4s-7 1-10 4C1-22 0-13 6-8l50 48c6 5 15 6 20 0s6-15 0-20l-6-6h148l-6 6c-6 5-5 14 0 20s14 5 20 0zm-57 408c35 0 63-28 63-63V101c0-35-144-65-144-65S0 66 0 101v236c0 35 30 63 65 63h15c0 9 7 16 16 16h96c9 0 16-7 16-16h17zM144 96c26 0 48 22 48 48s-22 48-48 48-48-22-48-48 22-48 48-48zm96 160v64c0 9-7 16-16 16H64c-9 0-16-7-16-16v-64c0-9 7-16 16-16h160c9 0 16 7 16 16zM114 144c0 17 13 30 30 30s30-13 30-30-13-30-30-30-30 13-30 30z"/><glyph glyph-name="ion-md-checkmark-circle-outline" unicode="" d="M123 232l64-64 179 178 29-29-208-208-93 93zm251-40h42c0-114-94-208-208-208S0 78 0 192s94 208 208 208c28 0 54-6 78-16l-32-32c-15 4-30 6-46 6-92 0-166-74-166-166S116 26 208 26s166 74 166 166z"/><glyph glyph-name="ion-md-umbrella" unicode="" d="M362 204c-17 0-32-11-37-26h-20c-6 14-21 26-38 26-18 0-40-6-42-32V53c0-15-1-37-14-50-10-10-23-19-43-19-36 0-60 26-60 61v21h43V45c0-14 10-16 17-16 14 0 13 15 13 24v118c-1 18-16 33-34 33-16 0-29-11-33-26H94c-5 15-19 26-36 26-13 0-29-11-36-26H0v4c0 106 77 193 181 203 3 9 11 15 21 15s19-6 22-15c50-5 97-29 133-66 38-39 59-91 59-141h-20c-7 15-22 26-34 26z"/><glyph glyph-name="ion-md-trending-down" unicode="" horiz-adv-x="448" d="M448 51H314l51 51-109 110-90-90L0 288l32 32 134-134 90 89 141-141 51 52V51z"/><glyph glyph-name="ion-md-git-branch" unicode="" horiz-adv-x="320" d="M320 288c0-24-13-44-32-55v-9c0-42-19-76-55-99-23-15-53-25-92-31-20-3-28-14-30-19 10-11 17-26 17-43 0-35-29-64-64-64S0-3 0 32c0 24 13 44 32 55v210c-19 11-32 31-32 55 0 35 29 64 64 64s64-29 64-64c0-24-13-44-32-55V147c10 5 21 9 35 11 29 4 53 11 68 21 18 11 25 25 25 45v9c-19 11-32 31-32 55 0 35 29 64 64 64s64-29 64-64zM64 392c-22 0-40-18-40-40s18-40 40-40 40 18 40 40-18 40-40 40zM64-8c22 0 40 18 40 40S86 72 64 72 24 54 24 32 42-8 64-8zm192 256c22 0 40 18 40 40s-18 40-40 40-40-18-40-40 18-40 40-40z"/><glyph glyph-name="ion-ios-jet" unicode="" d="M416 400s-1-19-27-53c-12-15-121-162-121-162l8-160-36-41-52 102-10-8-4-82-33-6-48 60-53-26 26 53-60 48 6 33 82 4 8 10L0 224l41 36 160-8s146 109 162 121c33 26 53 27 53 27z"/><glyph glyph-name="ion-ios-school" unicode="" horiz-adv-x="448" d="M64 178c0 6 7 10 12 7l132-75c2-2 4-4 4-7V9c0-6-7-10-12-7L68 78c-2 2-4 4-4 7v93zM248 2c-5-3-12 1-12 7v94c0 3 2 6 4 7l132 76c5 3 12-1 12-7V85c0-3-2-6-4-7zm-32 381c5 3 11 3 16 0l212-129c2-2 4-5 4-8V75c0-7-6-10-10-10-7 0-11 3-11 10v153c0 6-2 10-7 7L232 127c-5-3-11-3-16 0L4 245c-5 3-5 11 0 14z"/><glyph glyph-name="ion-ios-magnet" unicode="" d="M414 186c2-2 2-6 0-8l-57-58c-2-2-7-2-9 0L185 283c-13 13-28 20-42 22s-26-2-36-12-15-23-13-37 10-28 23-41L280 52c2-2 2-7 0-9l-58-57c-1-1-2-2-4-2s-3 1-4 2L41 158C14 185 0 220 0 258s14 74 41 101 63 41 101 41 73-14 100-41zM228 68l-30-30 20-20 30 30zm124 84l30 30-20 20-30-30z"/><glyph glyph-name="ion-ios-flash" unicode="" horiz-adv-x="256" d="M248 224c6 0 11-8 7-14L71-30c-3-4-8-1-7 3l52 187H8c-6 0-10 7-6 13l183 241c3 4 8 1 7-3l-52-187h108z"/><glyph glyph-name="ion-logo-twitch" unicode="" d="M32 416h384V144L304 32h-80l-64-64H96v64H0v304zm336-256v208H64V96h80V32l64 64h96zm-96 16v129h48V176h-48zm-112 0v129h48V176h-48z"/></font>
</defs>
</svg>
